当前位置: 首页 >> 日韩电影 >> 想被女子高中生杀掉[中文字幕].To.Be.Killed.by.a.High.School.Girl.2022.1080p.WEB-DL.AAC2.0.H.264-DreamHD 2.93GB >> 正文

想被女子高中生杀掉[中文字幕].To.Be.Killed.by.a.High.School.Girl.2022.1080p.WEB-DL.AAC2.0.H.264-DreamHD 2.93GB

2022年12月23日 09:25:41     电影发布:来源于网络     电影分类:日韩电影     评论(0)    

◎标 题 想被女子高中生杀掉

◎译 名 想被女高中生杀掉

◎片 名 女子高生に殺されたい

◎年 代 2022

◎产 地 日本

◎类 别 剧情 / 惊悚 / 犯罪

◎语 言 日语

◎上映日期 2022-03-17(大阪亚洲电影节) / 2022-04-01(日本)

◎IMDb评分 5.7/10 (18人评价)

◎IMDb链接 https://www.imdb.com/title/tt21439866/

◎豆瓣评分 5.4/10 (589人评价)

◎豆瓣链接 https://movie.douban.com/subject/35712689/

◎片 长 110分钟

◎导 演 城定秀夫 Hideo Jôjô

◎编 剧 城定秀夫 Hideo Jôjô

古屋兔丸 Usamaru Furuya

◎演 员 田中圭 Kei Tanaka

南沙良 Sara Minami

河合优实 Yuumi Kawai

莉子 Riko

茅岛水树 Mizuki Kayashima

细田佳央太 Kanata Hosoda

大岛优子 Yuko Oshima

久保乃乃花 Nonoka Kubo

世武裕子 Hiroko Sebu

◎简 介

东山春人(田中圭 饰)表面看来是一名非常普通的男子,而实际上,他拥有着十分扭曲的性格,身为抖M的他一直渴望着想要被某人杀死。随着年龄的增长,这种想要被杀死的愿望越来越具体起来——春人不仅想要被杀死,而且必须是被女子高中生杀死。

为了能够实现自己的愿望,春人步入社会之后进入了高中成为了那里的一名老师,并且最终在校园里找到了自己的目标——佐佐木真帆(南沙良 饰)。为了找到能够被真帆杀死,但又不会令真帆产生愧疚感以及惹上麻烦的方法,春人开始了缜密的筹划。

  1. ##### MediaInfo ######

  2. General

  3. Unique ID : 190607678502280818093823772645246598125 (0x8F65B41CE2DB3635FFCEE2B2EA2F7BED)

  4. Complete name : To.Be.Killed.by.a.High.School.Girl.2022.1080p.WEB-DL.AAC2.0.H.264-DreamHD.mkv

  5. Format : Matroska

  6. Format version : Version 4

  7. File size : 2.93 GiB

  8. Duration : 1 h 50 min

  9. Overall bit rate : 3 804 kb/s

  10. Encoded date : UTC 2022-12-21 06:42:00

  11. Writing application : mkvmerge v69.0.0 ('Day And Age') 64-bit

  12. Writing library : libebml v1.4.2 + libmatroska v1.6.4


  13. Video

  14. ID : 1

  15. Format : AVC

  16. Format/Info : Advanced Video Codec

  17. Format profile : [email protected]

  18. Format settings : CABAC / 1 Ref Frames

  19. Format settings, CABAC : Yes

  20. Format settings, Reference frames : 1 frame

  21. Format settings, GOP : M=1, N=60

  22. Codec ID : V_MPEG4/ISO/AVC

  23. Duration : 1 h 50 min

  24. Bit rate mode : Constant

  25. Bit rate : 3 676 kb/s

  26. Nominal bit rate : 4 000 kb/s

  27. Width : 1 920 pixels

  28. Height : 1 080 pixels

  29. Display aspect ratio : 16:9

  30. Frame rate mode : Constant

  31. Frame rate : 29.970 (30000/1001) FPS

  32. Color space : YUV

  33. Chroma subsampling : 4:2:0

  34. Bit depth : 8 bits

  35. Scan type : Progressive

  36. Bits/(Pixel*Frame) : 0.059

  37. Stream size : 2.84 GiB (97%)

  38. Default : Yes

  39. Forced : No


  40. Audio

  41. ID : 2

  42. Format : AAC LC

  43. Format/Info : Advanced Audio Codec Low Complexity

  44. Codec ID : A_AAC-2

  45. Duration : 1 h 50 min

  46. Bit rate : 125 kb/s

  47. Channel(s) : 2 channels

  48. Channel layout : L R

  49. Sampling rate : 48.0 kHz

  50. Frame rate : 46.875 FPS (1024 SPF)

  51. Compression mode : Lossy

  52. Stream size : 99.1 MiB (3%)

  53. Language : Japanese

  54. Default : No

  55. Forced : No


  56. Text #1

  57. ID : 3

  58. Format : UTF-8

  59. Codec ID : S_TEXT/UTF8

  60. Codec ID/Info : UTF-8 Plain Text

  61. Duration : 1 h 46 min

  62. Bit rate : 39 b/s

  63. Count of elements : 1257

  64. Stream size : 30.8 KiB (0%)

  65. Title : Simplified

  66. Language : Chinese

  67. Default : Yes

  68. Forced : No


  69. Text #2

  70. ID : 4

  71. Format : UTF-8

  72. Codec ID : S_TEXT/UTF8

  73. Codec ID/Info : UTF-8 Plain Text

  74. Duration : 1 h 46 min

  75. Bit rate : 39 b/s

  76. Count of elements : 1257

  77. Stream size : 30.8 KiB (0%)

  78. Title : Traditional

  79. Language : Chinese

  80. Default : No

  81. Forced : No


复制代码





文件下载


除非特别注明,本文『想被女子高中生杀掉[中文字幕].To.Be.Killed.by.a.High.School.Girl.2022.1080p.WEB-DL.AAC2.0.H.264-DreamHD 2.93GB』来源于互联网机器人自动抓取,非本站原创。 浮游电影网不对本文拥有版权,如有侵犯,请联系邮箱:fuyouu#yandex.com[#换成@]投诉。我们会在15个工作日内删除。 但烦请转载时请标明出处:“本文转载于『浮游电影网』,原文地址:https://www.fuyouu.com/22926.html

评论吧骚年!

发表你的见解   

昵称*

E-mail*(建议输入,以便收到博主回复的提示邮件)

验证码*

您可以使用eMule或eMule Mod(Windows)、aMule(Win、Linux、Mac)等软件下载eD2k链接。。
eMule收藏集(.emulecollection)文件是您选中的所有链接的列表文件。eMule可以直接下载它们。
按住SHIFT键选择可以选中多个选择框。
可用文件名和大小选择器来选择文件。
文件名选择器帮您根据文件名称或后缀来选择文件。不分大小写。
符号使用:
和:空格( )、+
不包含:-
或:|
转义:一对英文引号("");
匹配开头:^
匹配结尾:$
例如:
选中所有名称中包含有“eMule”或“0.49c”字眼,但不包含有“exe”字眼的:emule|0.49c -exe
选中所有名称的开头是“eMule”,结尾是“0.49c”的:^emule 0.49c$
选中所有名称中带有“eMule 0.49c”的(必须是“eMule 0.49c”,中间没有别的字符,不能是“eMule fake 0.49c”),需要转义:"emule 0.49c"
大小选择器帮您根据文件大小选择文件。