当前位置: 首页 >> 欧美电影 >> 野蛮人[简繁英字幕].Barbarian.2022.1080p.HMAX.WEB-DL.DDP5.1.x264-MOMOWEB 6.09GB >> 正文

野蛮人[简繁英字幕].Barbarian.2022.1080p.HMAX.WEB-DL.DDP5.1.x264-MOMOWEB 6.09GB

2022年12月20日 15:37:08     电影发布:来源于网络     电影分类:欧美电影     评论(0)    

◎标 题 野蛮人

◎译 名 宿劫(台)

◎片 名 Barbarian

◎年 代 2022

◎产 地 美国

◎类 别 惊悚 / 恐怖

◎语 言 英语

◎上映日期 2022-08-29(FrightFest) / 2022-09-09(美国)

◎IMDb评分 7.1/10 (98970人评价)

◎IMDb链接 https://www.imdb.com/title/tt15791034/

◎豆瓣评分 6.8/10 (26529人评价)

◎豆瓣链接 https://movie.douban.com/subject/35730910/

◎片 长 102分钟

◎导 演 扎克·克雷格 Zach Cregger

◎编 剧 扎克·克雷格 Zach Cregger

◎演 员 乔治娜·坎贝尔 Georgina Campbell

比尔·斯卡斯加德 Bill Skarsgård

贾斯汀·朗 Justin Long

马修·帕特里克·戴维斯 Matthew Patrick Davis

理查德·布雷克 Richard Brake

库尔特·布劳诺勒 Kurt Braunohler

杰米斯·巴特勒 Jaymes Butler

索菲·索伦森 Sophie Sörensen

雷切尔·福勒 Rachel Fowler

J·R·埃斯波西托 J.R. Esposito

凯特·尼科尔斯 Kate Nichols

凯特·波茨沃斯 Kate Bosworth

布鲁克·迪尔曼 Brooke Dillman

萨拉·帕克斯顿 Sara Paxton

威尔·格林伯格 Will Greenberg

扎克·克雷格 Zach Cregger

Anna Drubich Anna Drubich

Zach Kuperstein Zach Kuperstein

◎简 介

影片讲述一名前往底特律参加工作面试的年轻女子预订了一间出租屋。但当她在深夜到达时,发现房子被重复预订了,一个陌生男子已经住在那里。但她很快发现,这里还有更多恐怖的东西。

  1. ##### MediaInfo ######

  2. General

  3. Unique ID : 51113249600581692611917223751098930490 (0x26740DC59448F62D8B615A4B08F9953A)

  4. Complete name : Barbarian.2022.1080p.HMAX.WEB-DL.DDP5.1.x264-MOMOWEB.mkv

  5. Format : Matroska

  6. Format version : Version 4

  7. File size : 6.09 GiB

  8. Duration : 1 h 42 min

  9. Overall bit rate mode : Variable

  10. Overall bit rate : 8 498 kb/s

  11. Movie name : Barbarian.2022.1080p.HMAX.WEB-DL.DDP5.1.x264-PTerWEB

  12. Encoded date : UTC 2022-12-19 06:36:17

  13. Writing application : mkvmerge v72.0.0 ('Minuano (Six-eight)') 64-bit

  14. Writing library : libebml v1.4.4 + libmatroska v1.7.1


  15. Video

  16. ID : 1

  17. Format : AVC

  18. Format/Info : Advanced Video Codec

  19. Format profile : [email protected]

  20. Format settings : CABAC / 4 Ref Frames

  21. Format settings, CABAC : Yes

  22. Format settings, Reference frames : 4 frames

  23. Codec ID : V_MPEG4/ISO/AVC

  24. Duration : 1 h 42 min

  25. Bit rate mode : Variable

  26. Bit rate : 8 250 kb/s

  27. Maximum bit rate : 12.4 Mb/s

  28. Width : 1 920 pixels

  29. Height : 1 080 pixels

  30. Display aspect ratio : 16:9

  31. Frame rate mode : Constant

  32. Frame rate : 23.976 (24000/1001) FPS

  33. Color space : YUV

  34. Chroma subsampling : 4:2:0

  35. Bit depth : 8 bits

  36. Scan type : Progressive

  37. Bits/(Pixel*Frame) : 0.166

  38. Stream size : 5.90 GiB (97%)

  39. Writing library : x264 core 157 r2965 861cec4

  40. Encoding settings : cabac=1 / ref=4 / deblock=1:0:0 / analyse=0x3:0x113 / me=hex / subme=7 / psy=1 / psy_rd=1.00:0.00 / mixed_ref=1 / me_range=16 / chroma_me=1 / trellis=1 / 8x8dct=1 / cqm=0 / deadzone=21,11 / fast_pskip=1 / chroma_qp_offset=-2 / threads=34 / lookahead_threads=5 / sliced_threads=0 / nr=0 / decimate=1 / interlaced=0 / bluray_compat=0 / constrained_intra=0 / bframes=3 / b_pyramid=2 / b_adapt=1 / b_bias=0 / direct=1 / weightb=1 / open_gop=0 / weightp=2 / keyint=96 / keyint_min=96 / scenecut=40 / intra_refresh=0 / rc_lookahead=40 / rc=2pass / mbtree=1 / bitrate=8250 / ratetol=1.0 / qcomp=0.60 / qpmin=0 / qpmax=69 / qpstep=4 / cplxblur=20.0 / qblur=0.5 / vbv_maxrate=12375 / vbv_bufsize=6187 / nal_hrd=vbr / filler=0 / ip_ratio=1.40 / aq=1:1.00

  41. Default : Yes

  42. Forced : No

  43. Color range : Limited

  44. Color primaries : BT.709

  45. Transfer characteristics : BT.709

  46. Matrix coefficients : BT.709


  47. Audio

  48. ID : 2

  49. Format : E-AC-3

  50. Format/Info : Enhanced AC-3

  51. Commercial name : Dolby Digital Plus

  52. Codec ID : A_EAC3

  53. Duration : 1 h 42 min

  54. Bit rate mode : Constant

  55. Bit rate : 256 kb/s

  56. Channel(s) : 6 channels

  57. Channel layout : L R C LFE Ls Rs

  58. Sampling rate : 48.0 kHz

  59. Frame rate : 31.250 FPS (1536 SPF)

  60. Compression mode : Lossy

  61. Delay relative to video : -83 ms

  62. Stream size : 188 MiB (3%)

  63. Language : English

  64. Service kind : Complete Main

  65. Default : Yes

  66. Forced : No


  67. Text #1

  68. ID : 3

  69. Format : UTF-8

  70. Codec ID : S_TEXT/UTF8

  71. Codec ID/Info : UTF-8 Plain Text

  72. Duration : 1 h 41 min

  73. Bit rate : 55 b/s

  74. Count of elements : 1533

  75. Stream size : 41.6 KiB (0%)

  76. Title : SDH

  77. Language : English

  78. Default : No

  79. Forced : No


  80. Text #2

  81. ID : 4

  82. Format : UTF-8

  83. Codec ID : S_TEXT/UTF8

  84. Codec ID/Info : UTF-8 Plain Text

  85. Duration : 1 h 39 min

  86. Bit rate : 57 b/s

  87. Count of elements : 1446

  88. Stream size : 41.7 KiB (0%)

  89. Title : SDH

  90. Language : Spanish

  91. Default : No

  92. Forced : No


  93. Text #3

  94. ID : 5

  95. Format : UTF-8

  96. Codec ID : S_TEXT/UTF8

  97. Codec ID/Info : UTF-8 Plain Text

  98. Duration : 1 h 40 min

  99. Bit rate : 38 b/s

  100. Count of elements : 1198

  101. Stream size : 28.3 KiB (0%)

  102. Title : 中文(简体)

  103. Language : Chinese

  104. Default : No

  105. Forced : No


  106. Text #4

  107. ID : 6

  108. Format : UTF-8

  109. Codec ID : S_TEXT/UTF8

  110. Codec ID/Info : UTF-8 Plain Text

  111. Duration : 1 h 40 min

  112. Bit rate : 41 b/s

  113. Count of elements : 1197

  114. Stream size : 30.6 KiB (0%)

  115. Title : 中文(繁體)

  116. Language : Chinese

  117. Default : No

  118. Forced : No


  119. Text #5

  120. ID : 7

  121. Format : UTF-8

  122. Codec ID : S_TEXT/UTF8

  123. Codec ID/Info : UTF-8 Plain Text

  124. Duration : 1 h 40 min

  125. Bit rate : 41 b/s

  126. Count of elements : 1196

  127. Stream size : 30.3 KiB (0%)

  128. Title : 中文(繁體)HK

  129. Language : Chinese

  130. Default : No

  131. Forced : No


复制代码




文件下载



除非特别注明,本文『野蛮人[简繁英字幕].Barbarian.2022.1080p.HMAX.WEB-DL.DDP5.1.x264-MOMOWEB 6.09GB』来源于互联网机器人自动抓取,非本站原创。 浮游电影网不对本文拥有版权,如有侵犯,请联系邮箱:fuyouu#yandex.com[#换成@]投诉。我们会在15个工作日内删除。 但烦请转载时请标明出处:“本文转载于『浮游电影网』,原文地址:https://www.fuyouu.com/22923.html

评论吧骚年!

发表你的见解   

昵称*

E-mail*(建议输入,以便收到博主回复的提示邮件)

验证码*

您可以使用eMule或eMule Mod(Windows)、aMule(Win、Linux、Mac)等软件下载eD2k链接。。
eMule收藏集(.emulecollection)文件是您选中的所有链接的列表文件。eMule可以直接下载它们。
按住SHIFT键选择可以选中多个选择框。
可用文件名和大小选择器来选择文件。
文件名选择器帮您根据文件名称或后缀来选择文件。不分大小写。
符号使用:
和:空格( )、+
不包含:-
或:|
转义:一对英文引号("");
匹配开头:^
匹配结尾:$
例如:
选中所有名称中包含有“eMule”或“0.49c”字眼,但不包含有“exe”字眼的:emule|0.49c -exe
选中所有名称的开头是“eMule”,结尾是“0.49c”的:^emule 0.49c$
选中所有名称中带有“eMule 0.49c”的(必须是“eMule 0.49c”,中间没有别的字符,不能是“eMule fake 0.49c”),需要转义:"emule 0.49c"
大小选择器帮您根据文件大小选择文件。