当前位置: 首页 >> 欧美电影 >> 斯图神父[中文字幕].Father.Stu.2022.BluRay.1080p.DTS-HDMA5.1.x265.10bit-DreamHD 5.66GB >> 正文

斯图神父[中文字幕].Father.Stu.2022.BluRay.1080p.DTS-HDMA5.1.x265.10bit-DreamHD 5.66GB

2022年12月19日 19:33:34     电影发布:来源于网络     电影分类:欧美电影     评论(0)    

◎标 题 斯图神父

◎译 名 斯图

◎片 名 Father Stu

◎年 代 2022

◎产 地 美国

◎类 别 剧情 / 传记

◎语 言 英语

◎上映日期 2022-04-13(加拿大) / 2022-04-15(美国)

◎IMDb评分 6.5/10 (20150人评价)

◎IMDb链接 https://www.imdb.com/title/tt14439896/

◎豆瓣评分 6.6/10 (1386人评价)

◎豆瓣链接 https://movie.douban.com/subject/35430647/

◎片 长 124分钟

◎导 演 罗莎琳德·罗斯 Rosalind Ross

◎编 剧 罗莎琳德·罗斯 Rosalind Ross

◎演 员 梅尔·吉布森 Mel Gibson

马克·沃尔伯格 Mark Wahlberg

杰基·韦佛 Jacki Weaver

安内特·莫翰德鲁 Annet Mahendru

特蕾莎·鲁伊斯 Teresa Ruiz

雯特·艾娃·佐莉 Winter Ave Zoli

阿兰·乌伊 Alain Uy

耐德·巴拉米 Ned Bellamy

罗尼·吉恩·贝尔维斯 Ronnie Gene Blevins

尼科·尼科特拉 Niko Nicotera

迈克尔·费尔曼 Michael Fairman

卡洛斯·李尔 Carlos Leal

安妮·李 Annie Lee

博·克利里 Bo Cleary

文森特·M·比肖内 Vincent M. Biscione

马克·卡西米尔·戴妮奇斯 Mark Casimir Dyniewicz

詹姆斯·亨特 James Hunter

约翰尼·曼斯巴赫 Johnny Mansbach

◎简 介

拳击手斯图尔特(马克·沃尔伯格 饰)因受伤而结束了他的职业生涯。从一场死亡车祸幸存后,他决定把握生命第二次机会,立志做一名牧师。

根据真实人物故事改编。

  1. ##### MediaInfo ######

  2. General

  3. Unique ID : 136665237027837639147101746686437196320 (0x66D0C469811F7528EAAEEED56AF58220)

  4. Complete name : Father.Stu.2022.BluRay.1080p.DTS-HDMA5.1.x265.10bit-DreamHD.mkv

  5. Format : Matroska

  6. Format version : Version 4

  7. File size : 5.66 GiB

  8. Duration : 2 h 4 min

  9. Overall bit rate mode : Variable

  10. Overall bit rate : 6 504 kb/s

  11. Encoded date : UTC 2022-06-04 12:27:08

  12. Writing application : mkvmerge v62.0.0 ('Apollo') 64-bit

  13. Writing library : libebml v1.4.2 + libmatroska v1.6.4


  14. Video

  15. ID : 1

  16. Format : HEVC

  17. Format/Info : High Efficiency Video Coding

  18. Format profile : Main [email protected]@Main

  19. Codec ID : V_MPEGH/ISO/HEVC

  20. Duration : 2 h 4 min

  21. Bit rate : 4 295 kb/s

  22. Width : 1 920 pixels

  23. Height : 804 pixels

  24. Display aspect ratio : 2.40:1

  25. Frame rate mode : Constant

  26. Frame rate : 23.976 (24000/1001) FPS

  27. Original frame rate : 23.976 (23976/1000) FPS

  28. Color space : YUV

  29. Chroma subsampling : 4:2:0

  30. Bit depth : 10 bits

  31. Bits/(Pixel*Frame) : 0.116

  32. Stream size : 3.74 GiB (66%)

  33. Writing library : x265 3.5+10-82786fccc:[Windows][MSVC 1929][64 bit] 10bit

  34. Encoding settings : cpuid=1111039 / frame-threads=5 / numa-pools=36,36 / wpp / no-pmode / no-pme / no-psnr / no-ssim / log-level=2 / input-csp=1 / input-res=1920x804 / interlace=0 / total-frames=0 / level-idc=0 / high-tier=1 / uhd-bd=0 / ref=6 / no-allow-non-conformance / repeat-headers / annexb / no-aud / no-eob / no-eos / no-hrd / info / hash=0 / no-temporal-layers / no-open-gop / min-keyint=23 / keyint=250 / gop-lookahead=0 / bframes=8 / b-adapt=2 / b-pyramid / bframe-bias=0 / rc-lookahead=24 / lookahead-slices=5 / scenecut=40 / hist-scenecut=0 / radl=0 / no-splice / no-intra-refresh / ctu=64 / min-cu-size=8 / no-rect / no-amp / max-tu-size=32 / tu-inter-depth=1 / tu-intra-depth=1 / limit-tu=0 / rdoq-level=0 / dynamic-rd=0.00 / no-ssim-rd / signhide / no-tskip / nr-intra=0 / nr-inter=0 / no-constrained-intra / no-strong-intra-smoothing / max-merge=3 / limit-refs=1 / no-limit-modes / me=2 / subme=7 / merange=48 / temporal-mvp / no-frame-dup / no-hme / weightp / weightb / no-analyze-src-pics / deblock=0:0 / sao / no-sao-non-deblock / rd=4 / selective-sao=4 / early-skip / rskip / no-fast-intra / no-tskip-fast / no-cu-lossless / b-intra / no-splitrd-skip / rdpenalty=0 / psy-rd=2.00 / psy-rdoq=0.00 / no-rd-refine / no-lossless / cbqpoffs=0 / crqpoffs=0 / rc=crf / crf=14.5 / qcomp=0.60 / qpstep=4 / stats-write=0 / stats-read=0 / ipratio=1.40 / pbratio=1.30 / aq-mode=3 / aq-strength=1.00 / cutree / zone-count=0 / no-strict-cbr / qg-size=32 / no-rc-grain / qpmax=69 / qpmin=0 / no-const-vbv / sar=0 / overscan=0 / videoformat=5 / range=0 / colorprim=2 / transfer=2 / colormatrix=2 / chromaloc=0 / display-window=0 / cll=0,0 / min-luma=0 / max-luma=1023 / log2-max-poc-lsb=8 / vui-timing-info / vui-hrd-info / slices=1 / no-opt-qp-pps / no-opt-ref-list-length-pps / no-multi-pass-opt-rps / scenecut-bias=0.05 / hist-threshold=0.03 / no-opt-cu-delta-qp / aq-motion / no-hdr10 / no-hdr10-opt / no-dhdr10-opt / no-idr-recovery-sei / analysis-reuse-level=0 / analysis-save-reuse-level=0 / analysis-load-reuse-level=0 / scale-factor=0 / refine-intra=0 / refine-inter=0 / refine-mv=1 / refine-ctu-distortion=0 / no-limit-sao / ctu-info=0 / no-lowpass-dct / refine-analysis-type=0 / copy-pic=1 / max-ausize-factor=1.0 / no-dynamic-refine / no-single-sei / no-hevc-aq / no-svt / no-field / qp-adaptation-range=1.00 / scenecut-aware-qp=0conformance-window-offsets / right=0 / bottom=0 / decoder-max-rate=0 / no-vbv-live-multi-pass

  35. Default : Yes

  36. Forced : No


  37. Audio

  38. ID : 2

  39. Format : DTS XLL

  40. Format/Info : Digital Theater Systems

  41. Commercial name : DTS-HD Master Audio

  42. Codec ID : A_DTS

  43. Duration : 2 h 4 min

  44. Bit rate mode : Variable

  45. Bit rate : 2 140 kb/s

  46. Channel(s) : 6 channels

  47. Channel layout : C L R Ls Rs LFE

  48. Sampling rate : 48.0 kHz

  49. Frame rate : 93.750 FPS (512 SPF)

  50. Bit depth : 16 bits

  51. Compression mode : Lossless

  52. Stream size : 1.86 GiB (33%)

  53. Language : English

  54. Default : Yes

  55. Forced : No


  56. Text #1

  57. ID : 3

  58. Format : PGS

  59. Muxing mode : zlib

  60. Codec ID : S_HDMV/PGS

  61. Codec ID/Info : Picture based subtitle format used on BDs/HD-DVDs

  62. Duration : 2 h 3 min

  63. Bit rate : 32.1 kb/s

  64. Count of elements : 3164

  65. Stream size : 28.3 MiB (0%)

  66. Language : Chinese

  67. Default : Yes

  68. Forced : No


  69. Text #2

  70. ID : 4

  71. Format : PGS

  72. Muxing mode : zlib

  73. Codec ID : S_HDMV/PGS

  74. Codec ID/Info : Picture based subtitle format used on BDs/HD-DVDs

  75. Duration : 2 h 3 min

  76. Bit rate : 31.2 kb/s

  77. Count of elements : 3164

  78. Stream size : 27.5 MiB (0%)

  79. Language : Chinese

  80. Default : Yes

  81. Forced : No


  82. Text #3

  83. ID : 5

  84. Format : PGS

  85. Muxing mode : zlib

  86. Codec ID : S_HDMV/PGS

  87. Codec ID/Info : Picture based subtitle format used on BDs/HD-DVDs

  88. Duration : 2 h 2 min

  89. Bit rate : 43.3 kb/s

  90. Count of elements : 3665

  91. Stream size : 37.9 MiB (1%)

  92. Language : English

  93. Default : Yes

  94. Forced : No


  95. Menu

  96. 00:00:00.000 : en:第 01 章

  97. 00:09:14.637 : en:第 02 章

  98. 00:17:31.676 : en:第 03 章

  99. 00:20:25.558 : en:第 04 章

  100. 00:26:13.030 : en:第 05 章

  101. 00:34:10.840 : en:第 06 章

  102. 00:49:55.492 : en:第 07 章

  103. 01:01:30.812 : en:第 08 章

  104. 01:06:45.752 : en:第 09 章

  105. 01:11:32.246 : en:第 10 章

  106. 01:15:28.649 : en:第 11 章

  107. 01:19:47.950 : en:第 12 章

  108. 01:24:26.436 : en:第 13 章

  109. 01:31:17.263 : en:第 14 章

  110. 01:39:43.019 : en:第 15 章

  111. 01:50:27.871 : en:第 16 章


复制代码



文件下载


除非特别注明,本文『斯图神父[中文字幕].Father.Stu.2022.BluRay.1080p.DTS-HDMA5.1.x265.10bit-DreamHD 5.66GB』来源于互联网机器人自动抓取,非本站原创。 浮游电影网不对本文拥有版权,如有侵犯,请联系邮箱:fuyouu#yandex.com[#换成@]投诉。我们会在15个工作日内删除。 但烦请转载时请标明出处:“本文转载于『浮游电影网』,原文地址:https://www.fuyouu.com/22922.html

评论吧骚年!

发表你的见解   

昵称*

E-mail*(建议输入,以便收到博主回复的提示邮件)

验证码*

您可以使用eMule或eMule Mod(Windows)、aMule(Win、Linux、Mac)等软件下载eD2k链接。。
eMule收藏集(.emulecollection)文件是您选中的所有链接的列表文件。eMule可以直接下载它们。
按住SHIFT键选择可以选中多个选择框。
可用文件名和大小选择器来选择文件。
文件名选择器帮您根据文件名称或后缀来选择文件。不分大小写。
符号使用:
和:空格( )、+
不包含:-
或:|
转义:一对英文引号("");
匹配开头:^
匹配结尾:$
例如:
选中所有名称中包含有“eMule”或“0.49c”字眼,但不包含有“exe”字眼的:emule|0.49c -exe
选中所有名称的开头是“eMule”,结尾是“0.49c”的:^emule 0.49c$
选中所有名称中带有“eMule 0.49c”的(必须是“eMule 0.49c”,中间没有别的字符,不能是“eMule fake 0.49c”),需要转义:"emule 0.49c"
大小选择器帮您根据文件大小选择文件。