当前位置: 首页 >> 国产电影 >> 牧野诡事之赤丹珠[中文字幕/国语音轨].Mountain.Porter.2022.1080p.WEB-DL.H265.DDP-TAGWEB 1.89GB >> 正文

牧野诡事之赤丹珠[中文字幕/国语音轨].Mountain.Porter.2022.1080p.WEB-DL.H265.DDP-TAGWEB 1.89GB

2022年12月18日 19:51:04     电影发布:来源于网络     电影分类:国产电影     评论(0)    

◎标 题 牧野诡事之赤丹珠

◎译 名 牧野诡事之搬山道人

◎年 代 2022

◎产 地 中国大陆

◎类 别 剧情 / 动作 / 惊悚 / 冒险

◎语 言 汉语普通话

◎上映日期 2022-12-17(中国大陆网络)

◎IMDb链接 https://www.imdb.com/title//

◎豆瓣链接 https://movie.douban.com/subject/35480608/

◎导 演 陈聚力 Juli Chen

◎编 剧 天下霸唱 Muye Zhang

◎演 员 袁福福 Fufu Yuan

何泓姗 Hongshan He

周晓鸥 Xiaoou Zhou

邢瀚卿 Hanqing Xing

佟磊 Lei Tong

于昕仡 Xinyi Yu

唐季礼 Stanley Tong

◎简 介

讲述了搬山魁首鹧鸪哨(袁福福饰)为找寻父亲身故真相,破解族人千年诅咒,与搬山一派共同涉险探宝寻找雮尘珠的故事,一路穿越树海葬桥,破解层层迷雾,逐渐找到埋藏骨族深渊的地宫之谜……

  1. ##### MediaInfo ######

  2. General

  3. Unique ID : 280162372457806510173766821579158376616 (0xD2C54F6BEF55E0F1D29162DF872AD0A8)

  4. Complete name : Mountain.Porter.2022.1080p.WEB-DL.H265.DDP-TAGWEB.mkv

  5. Format : Matroska

  6. Format version : Version 4

  7. File size : 1.89 GiB

  8. Duration : 1 h 17 min

  9. Overall bit rate : 3 507 kb/s

  10. Writing application : mkvmerge v69.0.0 ('Day And Age') 64-bit

  11. Writing library : libebml v1.4.2 + libmatroska v1.6.4


  12. Video

  13. ID : 1

  14. Format : HEVC

  15. Format/Info : High Efficiency Video Coding

  16. Format profile : [email protected]@Main

  17. Codec ID : V_MPEGH/ISO/HEVC

  18. Duration : 1 h 16 min

  19. Bit rate : 3 065 kb/s

  20. Width : 1 920 pixels

  21. Height : 800 pixels

  22. Display aspect ratio : 2.40:1

  23. Frame rate mode : Constant

  24. Frame rate : 24.000 FPS

  25. Color space : YUV

  26. Chroma subsampling : 4:2:0

  27. Bit depth : 8 bits

  28. Bits/(Pixel*Frame) : 0.083

  29. Stream size : 1.65 GiB (87%)

  30. Language : Chinese

  31. Default : Yes

  32. Forced : No


  33. Audio #1

  34. ID : 2

  35. Format : E-AC-3

  36. Format/Info : Enhanced AC-3

  37. Commercial name : Dolby Digital Plus

  38. Codec ID : A_EAC3

  39. Duration : 1 h 17 min

  40. Bit rate mode : Constant

  41. Bit rate : 256 kb/s

  42. Channel(s) : 2 channels

  43. Channel layout : L R

  44. Sampling rate : 48.0 kHz

  45. Frame rate : 31.250 FPS (1536 SPF)

  46. Compression mode : Lossy

  47. Stream size : 141 MiB (7%)

  48. Language : Chinese

  49. Service kind : Complete Main

  50. Default : Yes

  51. Forced : No


  52. Audio #2

  53. ID : 3

  54. Format : AAC LC

  55. Format/Info : Advanced Audio Codec Low Complexity

  56. Codec ID : A_AAC-2

  57. Duration : 1 h 16 min

  58. Bit rate : 192 kb/s

  59. Channel(s) : 2 channels

  60. Channel layout : L R

  61. Sampling rate : 44.1 kHz

  62. Frame rate : 43.066 FPS (1024 SPF)

  63. Compression mode : Lossy

  64. Stream size : 104 MiB (5%)

  65. Language : Chinese

  66. Default : No

  67. Forced : No


复制代码







文件下载


除非特别注明,本文『牧野诡事之赤丹珠[中文字幕/国语音轨].Mountain.Porter.2022.1080p.WEB-DL.H265.DDP-TAGWEB 1.89GB』来源于互联网机器人自动抓取,非本站原创。 浮游电影网不对本文拥有版权,如有侵犯,请联系邮箱:fuyouu#yandex.com[#换成@]投诉。我们会在15个工作日内删除。 但烦请转载时请标明出处:“本文转载于『浮游电影网』,原文地址:https://www.fuyouu.com/22921.html

评论吧骚年!

发表你的见解   

昵称*

E-mail*(建议输入,以便收到博主回复的提示邮件)

验证码*

您可以使用eMule或eMule Mod(Windows)、aMule(Win、Linux、Mac)等软件下载eD2k链接。。
eMule收藏集(.emulecollection)文件是您选中的所有链接的列表文件。eMule可以直接下载它们。
按住SHIFT键选择可以选中多个选择框。
可用文件名和大小选择器来选择文件。
文件名选择器帮您根据文件名称或后缀来选择文件。不分大小写。
符号使用:
和:空格( )、+
不包含:-
或:|
转义:一对英文引号("");
匹配开头:^
匹配结尾:$
例如:
选中所有名称中包含有“eMule”或“0.49c”字眼,但不包含有“exe”字眼的:emule|0.49c -exe
选中所有名称的开头是“eMule”,结尾是“0.49c”的:^emule 0.49c$
选中所有名称中带有“eMule 0.49c”的(必须是“eMule 0.49c”,中间没有别的字符,不能是“eMule fake 0.49c”),需要转义:"emule 0.49c"
大小选择器帮您根据文件大小选择文件。