当前位置: 首页 >> 日韩电影 >> 琴茧[简繁字幕].Ito.2021.1080p.BluRay.x265.10bit-CTRLHD 4.37GB >> 正文

琴茧[简繁字幕].Ito.2021.1080p.BluRay.x265.10bit-CTRLHD 4.37GB

2022年12月18日 19:50:18     电影发布:来源于网络     电影分类:日韩电影     评论(0)    

◎标 题 琴茧

◎译 名 ITO / Itomichi

◎片 名 いとみち

◎年 代 2021

◎产 地 日本

◎类 别 剧情

◎语 言 日语

◎上映日期 2021-03-10(大阪亚洲电影节) / 2021-06-25(日本)

◎IMDb评分 6.7/10 (253人评价)

◎IMDb链接 https://www.imdb.com/title/tt14246700/

◎豆瓣评分 6.7/10 (293人评价)

◎豆瓣链接 https://movie.douban.com/subject/35173912/

◎片 长 116分钟

◎导 演 横浜聪子 Satoko Yokohama

◎编 剧 横浜聪子 Satoko Yokohama

越谷治 Osamu Koshigaya

◎演 员 驹井莲 Ren Komai

丰川悦司 Etsushi Toyokawa

黑川芽以 Mei Kurokawa

横田真悠 Mayuu Yokota

中岛步 Ayumu Nakajima

古坂和仁 Piko-Taro

宇野祥平 Shôhei Uno

佐佐木史帆 Sasaki Shiho

乔纳金 Jonagold

渡边琢磨 Takuma Watanabe

柳岛克己 Katsumi Yanagijima

◎简 介

16岁的高中女生相马丝(驹井莲)的特长是弹三味线。有一天,她开始在津轻的女仆咖啡店打工,她的生活也发生了翻天覆地的变化。

  1. ##### MediaInfo ######

  2. General

  3. Unique ID : 265910173207188065545890587771298987410 (0xC80C6FBF196382FCDB0A50BBFC193D92)

  4. Complete name : Ito.2021.1080p.BluRay.x265.10bit-CTRLHD.mkv

  5. Format : Matroska

  6. Format version : Version 4

  7. File size : 4.37 GiB

  8. Duration : 1 h 56 min

  9. Overall bit rate : 5 361 kb/s

  10. Movie name : Ito

  11. Encoded date : UTC 2022-12-17 15:19:20

  12. Writing application : mkvmerge v72.0.0 ('Minuano (Six-eight)') 64-bit

  13. Writing library : libebml v1.4.4 + libmatroska v1.7.1

  14. Attachments : HYXiuYingF.ttf / 华康华综体.ttf


  15. Video

  16. ID : 1

  17. Format : HEVC

  18. Format/Info : High Efficiency Video Coding

  19. Format profile : Main [email protected]@Main

  20. Codec ID : V_MPEGH/ISO/HEVC

  21. Duration : 1 h 56 min

  22. Bit rate : 4 708 kb/s

  23. Width : 1 920 pixels

  24. Height : 1 036 pixels

  25. Display aspect ratio : 1.85:1

  26. Frame rate mode : Constant

  27. Frame rate : 23.976 (24000/1001) FPS

  28. Color space : YUV

  29. Chroma subsampling : 4:2:0

  30. Bit depth : 10 bits

  31. Bits/(Pixel*Frame) : 0.099

  32. Stream size : 3.84 GiB (88%)

  33. Title : Jubowo @ WiKi

  34. Language : Japanese

  35. Default : Yes

  36. Forced : No


  37. Audio

  38. ID : 2

  39. Format : AC-3

  40. Format/Info : Audio Coding 3

  41. Commercial name : Dolby Digital

  42. Codec ID : A_AC3

  43. Duration : 1 h 56 min

  44. Bit rate mode : Constant

  45. Bit rate : 640 kb/s

  46. Channel(s) : 6 channels

  47. Channel layout : L R C LFE Ls Rs

  48. Sampling rate : 48.0 kHz

  49. Frame rate : 31.250 FPS (1536 SPF)

  50. Compression mode : Lossy

  51. Stream size : 535 MiB (12%)

  52. Language : Japanese

  53. Service kind : Complete Main

  54. Default : Yes

  55. Forced : No


  56. Text #1

  57. ID : 3

  58. Format : ASS

  59. Codec ID : S_TEXT/ASS

  60. Codec ID/Info : Advanced Sub Station Alpha

  61. Duration : 1 h 52 min

  62. Bit rate : 57 b/s

  63. Count of elements : 947

  64. Compression mode : Lossless

  65. Stream size : 47.0 KiB (0%)

  66. Title : 简体

  67. Language : Chinese

  68. Default : No

  69. Forced : No


  70. Text #2

  71. ID : 4

  72. Format : ASS

  73. Codec ID : S_TEXT/ASS

  74. Codec ID/Info : Advanced Sub Station Alpha

  75. Duration : 1 h 52 min

  76. Bit rate : 57 b/s

  77. Count of elements : 947

  78. Compression mode : Lossless

  79. Stream size : 47.0 KiB (0%)

  80. Title : 繁體

  81. Language : Chinese

  82. Default : Yes

  83. Forced : No


  84. Menu

  85. 00:00:00.000 : en:Chapter 01

  86. 00:09:37.535 : en:Chapter 02

  87. 00:20:26.350 : en:Chapter 03

  88. 00:29:58.005 : en:Chapter 04

  89. 00:40:39.395 : en:Chapter 05

  90. 00:50:14.470 : en:Chapter 06

  91. 00:57:38.914 : en:Chapter 07

  92. 01:05:46.693 : en:Chapter 08

  93. 01:12:58.207 : en:Chapter 09

  94. 01:23:55.155 : en:Chapter 10

  95. 01:36:05.259 : en:Chapter 11

  96. 01:46:17.663 : en:Chapter 12

  97. 01:56:48.001 : en:Chapter 13


复制代码




文件下载


除非特别注明,本文『琴茧[简繁字幕].Ito.2021.1080p.BluRay.x265.10bit-CTRLHD 4.37GB』来源于互联网机器人自动抓取,非本站原创。 浮游电影网不对本文拥有版权,如有侵犯,请联系邮箱:fuyouu#yandex.com[#换成@]投诉。我们会在15个工作日内删除。 但烦请转载时请标明出处:“本文转载于『浮游电影网』,原文地址:https://www.fuyouu.com/22920.html

评论吧骚年!

发表你的见解   

昵称*

E-mail*(建议输入,以便收到博主回复的提示邮件)

验证码*

您可以使用eMule或eMule Mod(Windows)、aMule(Win、Linux、Mac)等软件下载eD2k链接。。
eMule收藏集(.emulecollection)文件是您选中的所有链接的列表文件。eMule可以直接下载它们。
按住SHIFT键选择可以选中多个选择框。
可用文件名和大小选择器来选择文件。
文件名选择器帮您根据文件名称或后缀来选择文件。不分大小写。
符号使用:
和:空格( )、+
不包含:-
或:|
转义:一对英文引号("");
匹配开头:^
匹配结尾:$
例如:
选中所有名称中包含有“eMule”或“0.49c”字眼,但不包含有“exe”字眼的:emule|0.49c -exe
选中所有名称的开头是“eMule”,结尾是“0.49c”的:^emule 0.49c$
选中所有名称中带有“eMule 0.49c”的(必须是“eMule 0.49c”,中间没有别的字符,不能是“eMule fake 0.49c”),需要转义:"emule 0.49c"
大小选择器帮您根据文件大小选择文件。