当前位置: 首页 >> 日韩电影 >> 萌系男友是燃燃的橘色[中文字幕].My.Boyfriend.in.Orange.2022.1080p.WEB-DL.H264.AAC-MOMOWEB 2.69GB >> 正文

萌系男友是燃燃的橘色[中文字幕].My.Boyfriend.in.Orange.2022.1080p.WEB-DL.H264.AAC-MOMOWEB 2.69GB

2022年12月17日 15:38:58     电影发布:来源于网络     电影分类:日韩电影     评论(0)    

◎标 题 萌系男友是燃燃的橘色

◎片 名 モエカレはオレンジ色

◎年 代 2022

◎产 地 日本

◎类 别 爱情

◎语 言 日语

◎上映日期 2022-07-08(日本)

◎IMDb评分 6.3/10 (10人评价)

◎IMDb链接 https://www.imdb.com/title/tt19850394/

◎豆瓣链接 https://movie.douban.com/subject/35778518/

◎导 演 村上正典 Masanori Murakami

◎编 剧 山冈润平 Junpei Yamaoka

◎演 员 岩本照 Hikaru Iwamoto

生见爱瑠 Meru Nukumi

铃木仁 Suzuki Jin

上杉柊平 Shuhei Uesugi

浮所飞贵 Hidaka Ukisho

古川雄大 Yuta Furukawa

藤原大祐 Taiu Fujiwara

永濑莉子 Riko Nagase

高月彩良 Sara Takatsuki

笛木优子 Yuko Fueki

◎简 介

本片改编自玉岛Non的人气漫画,讲述了容易害羞但工作认真的消防员蛯原恭介与孤独的女高中生佐佐木萌衣之间笨拙的恋爱故事。

  1. ##### MediaInfo ######

  2. General

  3. Unique ID : 29845221089394826533325085050909698695 (0x1673FB02006A270D4A99E68F2AB72A87)

  4. Complete name : My.Boyfriend.in.Orange.2022.1080p.WEB-DL.H264.AAC-MOMOWEB.mkv

  5. Format : Matroska

  6. Format version : Version 4

  7. File size : 2.69 GiB

  8. Duration : 1 h 37 min

  9. Overall bit rate : 3 955 kb/s

  10. Encoded date : UTC 2022-12-16 12:50:47

  11. Writing application : mkvmerge v69.0.0 ('Day And Age') 64-bit

  12. Writing library : libebml v1.4.2 + libmatroska v1.6.4


  13. Video

  14. ID : 1

  15. Format : AVC

  16. Format/Info : Advanced Video Codec

  17. Format profile : [email protected]

  18. Format settings : CABAC / 1 Ref Frames

  19. Format settings, CABAC : Yes

  20. Format settings, Reference frames : 1 frame

  21. Format settings, GOP : M=1, N=60

  22. Codec ID : V_MPEG4/ISO/AVC

  23. Duration : 1 h 37 min

  24. Bit rate mode : Constant

  25. Bit rate : 4 000 kb/s

  26. Width : 1 920 pixels

  27. Height : 1 080 pixels

  28. Display aspect ratio : 16:9

  29. Frame rate mode : Constant

  30. Frame rate : 29.970 (30000/1001) FPS

  31. Color space : YUV

  32. Chroma subsampling : 4:2:0

  33. Bit depth : 8 bits

  34. Scan type : Progressive

  35. Bits/(Pixel*Frame) : 0.064

  36. Stream size : 2.60 GiB (97%)

  37. Default : Yes

  38. Forced : No


  39. Audio

  40. ID : 2

  41. Format : AAC LC

  42. Format/Info : Advanced Audio Codec Low Complexity

  43. Codec ID : A_AAC-2

  44. Duration : 1 h 37 min

  45. Bit rate : 125 kb/s

  46. Channel(s) : 2 channels

  47. Channel layout : L R

  48. Sampling rate : 48.0 kHz

  49. Frame rate : 46.875 FPS (1024 SPF)

  50. Compression mode : Lossy

  51. Stream size : 87.4 MiB (3%)

  52. Title : Japanese

  53. Language : Japanese

  54. Default : Yes

  55. Forced : No


复制代码




文件下载


除非特别注明,本文『萌系男友是燃燃的橘色[中文字幕].My.Boyfriend.in.Orange.2022.1080p.WEB-DL.H264.AAC-MOMOWEB 2.69GB』来源于互联网机器人自动抓取,非本站原创。 浮游电影网不对本文拥有版权,如有侵犯,请联系邮箱:fuyouu#yandex.com[#换成@]投诉。我们会在15个工作日内删除。 但烦请转载时请标明出处:“本文转载于『浮游电影网』,原文地址:https://www.fuyouu.com/22919.html

评论吧骚年!

发表你的见解   

昵称*

E-mail*(建议输入,以便收到博主回复的提示邮件)

验证码*

您可以使用eMule或eMule Mod(Windows)、aMule(Win、Linux、Mac)等软件下载eD2k链接。。
eMule收藏集(.emulecollection)文件是您选中的所有链接的列表文件。eMule可以直接下载它们。
按住SHIFT键选择可以选中多个选择框。
可用文件名和大小选择器来选择文件。
文件名选择器帮您根据文件名称或后缀来选择文件。不分大小写。
符号使用:
和:空格( )、+
不包含:-
或:|
转义:一对英文引号("");
匹配开头:^
匹配结尾:$
例如:
选中所有名称中包含有“eMule”或“0.49c”字眼,但不包含有“exe”字眼的:emule|0.49c -exe
选中所有名称的开头是“eMule”,结尾是“0.49c”的:^emule 0.49c$
选中所有名称中带有“eMule 0.49c”的(必须是“eMule 0.49c”,中间没有别的字符,不能是“eMule fake 0.49c”),需要转义:"emule 0.49c"
大小选择器帮您根据文件大小选择文件。