当前位置: 首页 >> 欧美电影 >> 黑亚当[杜比视界版本][简繁英双语特效字幕].Black.Adam.2022.2160p.HMAX.WEB-DL.DDP5.1.Atmos.DoVi.x265-MOMOWEB 16.33GB >> 正文

黑亚当[杜比视界版本][简繁英双语特效字幕].Black.Adam.2022.2160p.HMAX.WEB-DL.DDP5.1.Atmos.DoVi.x265-MOMOWEB 16.33GB

2022年12月17日 15:38:18     电影发布:来源于网络     电影分类:欧美电影     评论(0)    

◎标 题 黑亚当

◎译 名 霹雳亚当 / 黑亞當(港 / 台)

◎片 名 Black Adam

◎年 代 2022

◎产 地 美国 / 加拿大 / 新西兰 / 匈牙利

◎类 别 动作 / 科幻 / 奇幻 / 冒险

◎语 言 英语

◎上映日期 2022-11(中国大陆) / 2022-10-19(法国) / 2022-10-21(美国)

◎IMDb评分 7.1/10 (42334人评价)

◎IMDb链接 https://www.imdb.com/title/tt6443346/

◎豆瓣链接 https://movie.douban.com/subject/26959697/

◎片 长 125分钟

◎导 演 佐米·希尔拉 Jaume Collet-Serra

◎编 剧 亚当·希泰凯尔 Adam Sztykiel

罗里·海恩斯 Rory Haines

苏哈·诺什瓦尼 Sohrab Noshirvani

比尔·帕克 Bill Parker

C·C·贝克 C.C. Beck

奥托·班德 Otto Binder

◎演 员 道恩·强森 Dwayne Johnson

阿尔迪斯·霍吉 Aldis Hodge

皮尔斯·布鲁斯南 Pierce Brosnan

诺亚·琴蒂内奥 Noah Centineo

莎拉·夏希 Sarah Shahi

昆泰莎·斯文戴尔 Quintessa Swindell

马尔万·肯扎里 Marwan Kenzari

博德希·萨邦圭 Bodhi Sabongui

穆罕默德·阿米尔 Mohammed Amer

詹姆斯·卡萨蒂-莫耶尔 James Cusati-Moyer

哈隆·克里斯蒂安 Jalon Christian

本杰明·帕特森 Benjamin Patterson

奥德娅·哈尔维 Odelya Halevi

乌利·拉图基孚 Uli Latukefu

詹尼佛·霍兰德 Jennifer Holland

亨利·温克勒 Henry Winkler

哈伊姆·吉拉菲 Chaim Jeraffi

杰曼·翰苏 Djimon Hounsou

桑娜·海恩斯 Sanna Haynes

托内亚·斯图尔特 Tonea Stewart

帕特里克·萨邦圭 Patrick Sabongui

约瑟夫·盖特 Joseph Gatt

杰梅因·里弗斯 Jermaine Rivers

里贾纳·陈婷 Regina Ting Chen

卡梅隆·莫伊尔 Cameron Moir

德里克·罗素 Derek Russo

小安杰尔·罗萨里奥 Angel Rosario Jr.

克里斯托弗·马修·库克 Christopher Matthew Cook

娜塔莉·伯恩 Natalie Burn

亨利·卡维尔 Henry Cavill

维奥拉·戴维斯 Viola Davis

施奎塔·詹姆斯 Shiquita James

拉希姆·赖利 Rahiem Riley

海拉姆·加西亚 Hiram Garcia

道恩·强森 Dwayne Johnson

劳伦斯·谢尔 Lawrence Sher

汤姆·迈耶 Tom Meyer

Kevin Gilbert Kevin Gilbert

◎简 介

这个世界需要超级英雄…… 黑亚当降临。

黑亚当(道恩·强森 饰)被赋予了古代诸神无所不能的力量,但很快就被封印。近五千年后,他终于重见天日,并将在现代世界以独一无二的方式行使正义。

  1. ##### MediaInfo ######

  2. General

  3. Unique ID : 83323935423123595906893077486329475683 (0x3EAF9B31FDCC4C1AADD6111E42593263)

  4. Complete name : Black.Adam.2022.2160p.HMAX.WEB-DL.DDP5.1.Atmos.DoVi.x265-MOMOWEB.mkv

  5. Format : Matroska

  6. Format version : Version 4

  7. File size : 16.3 GiB

  8. Duration : 2 h 4 min

  9. Overall bit rate : 18.7 Mb/s

  10. Movie name : Black.Adam.2022.2160p.HMAX.WEB-DL.DDP5.1.Atmos.DoVi.x265-PTerWEB

  11. Encoded date : UTC 2022-12-16 16:17:13

  12. Writing application : mkvmerge v72.0.0 ('Minuano (Six-eight)') 64-bit

  13. Writing library : libebml v1.4.4 + libmatroska v1.7.1


  14. Video

  15. ID : 1

  16. Format : HEVC

  17. Format/Info : High Efficiency Video Coding

  18. Format profile : Main [email protected]@Main

  19. Codec ID : V_MPEGH/ISO/HEVC

  20. Duration : 2 h 4 min

  21. Bit rate : 17.9 Mb/s

  22. Width : 3 840 pixels

  23. Height : 2 160 pixels

  24. Display aspect ratio : 16:9

  25. Frame rate mode : Constant

  26. Frame rate : 23.976 (24000/1001) FPS

  27. Color space : YUV

  28. Chroma subsampling : 4:2:0

  29. Bit depth : 10 bits

  30. Bits/(Pixel*Frame) : 0.090

  31. Stream size : 15.6 GiB (96%)

  32. Writing library : x265 3.4hy:[Linux][GCC 7.5.0][64 bit] 10bit

  33. Encoding settings : cpuid=1111039 / frame-threads=6 / no-wpp / no-pmode / no-pme / no-psnr / no-ssim / log-level=2 / input-csp=1 / input-res=3840x2160 / interlace=0 / total-frames=0 / level-idc=0 / high-tier=1 / uhd-bd=0 / ref=4 / no-allow-non-conformance / repeat-headers / annexb / aud / hrd / info / hash=0 / no-temporal-layers / no-open-gop / min-keyint=96 / keyint=96 / gop-lookahead=0 / bframes=4 / b-adapt=2 / b-pyramid / bframe-bias=0 / rc-lookahead=25 / lookahead-slices=4 / scenecut=40 / hist-scenecut=0 / radl=0 / no-splice / no-intra-refresh / ctu=64 / min-cu-size=8 / rect / no-amp / max-tu-size=32 / tu-inter-depth=1 / tu-intra-depth=1 / limit-tu=0 / rdoq-level=2 / dynamic-rd=0.00 / no-ssim-rd / signhide / no-tskip / nr-intra=0 / nr-inter=0 / no-constrained-intra / strong-intra-smoothing / max-merge=3 / limit-refs=3 / limit-modes / me=3 / subme=3 / merange=57 / temporal-mvp / no-frame-dup / no-hme / weightp / no-weightb / no-analyze-src-pics / deblock=0:0 / sao / no-sao-non-deblock / rd=4 / selective-sao=4 / no-early-skip / rskip / no-fast-intra / no-tskip-fast / no-cu-lossless / no-b-intra / no-splitrd-skip / rdpenalty=0 / psy-rd=2.00 / psy-rdoq=1.00 / no-rd-refine / no-lossless / cbqpoffs=0 / crqpoffs=3 / rc=abr / bitrate=18000 / qcomp=0.60 / qpstep=4 / stats-write=0 / stats-read=2 / cplxblur=20.0 / qblur=0.5 / vbv-maxrate=24500 / vbv-bufsize=24500 / vbv-init=0.6 / vbv-end=0.6 / vbv-end-fr-adj=0.0 / ipratio=1.40 / pbratio=1.30 / aq-mode=2 / aq-strength=1.00 / cutree / zone-count=0 / no-strict-cbr / qg-size=32 / no-rc-grain / qpmax=69 / qpmin=0 / no-const-vbv / sar=1 / overscan=0 / videoformat=5 / range=1 / colorprim=2 / transfer=2 / colormatrix=2 / chromaloc=0 / display-window=0 / cll=0,0 / min-luma=0 / max-luma=1023 / log2-max-poc-lsb=8 / vui-timing-info / vui-hrd-info / no-concatenation / slices=1 / no-opt-qp-pps / no-opt-ref-list-length-pps / no-multi-pass-opt-rps / scenecut-bias=0.05 / hist-threshold=0.01 / no-opt-cu-delta-qp / no-aq-motion / no-hdr10 / no-hdr10-opt / no-dhdr10-opt / no-idr-recovery-sei / analysis-reuse-level=0 / analysis-save-reuse-level=0 / analysis-load-reuse-level=0 / scale-factor=0 / refine-intra=0 / refine-inter=0 / refine-mv=1 / refine-ctu-distortion=0 / no-limit-sao / ctu-info=0 / no-lowpass-dct / refine-analysis-type=0 / copy-pic=1 / max-ausize-factor=1.0 / no-dynamic-refine / no-single-sei / no-hevc-aq / no-svt / no-field / qp-adaptation-range=1.00 / no-scenecut-aware-qpconformance-window-offsets / right=0 / bottom=0 / decoder-max-rate=0

  34. Default : Yes

  35. Forced : No

  36. Color range : Full


  37. Audio

  38. ID : 2

  39. Format : E-AC-3 JOC

  40. Format/Info : Enhanced AC-3 with Joint Object Coding

  41. Commercial name : Dolby Digital Plus with Dolby Atmos

  42. Codec ID : A_EAC3

  43. Duration : 2 h 4 min

  44. Bit rate mode : Constant

  45. Bit rate : 768 kb/s

  46. Channel(s) : 6 channels

  47. Channel layout : L R C LFE Ls Rs

  48. Sampling rate : 48.0 kHz

  49. Frame rate : 31.250 FPS (1536 SPF)

  50. Compression mode : Lossy

  51. Delay relative to video : -83 ms

  52. Stream size : 686 MiB (4%)

  53. Language : English

  54. Service kind : Complete Main

  55. Default : Yes

  56. Forced : No

  57. Complexity index : 16

  58. Number of dynamic objects : 15

  59. Bed channel count : 1 channel

  60. Bed channel configuration : LFE


  61. Text #1

  62. ID : 3

  63. Format : UTF-8

  64. Codec ID : S_TEXT/UTF8

  65. Codec ID/Info : UTF-8 Plain Text

  66. Duration : 2 h 0 min

  67. Bit rate : 57 b/s

  68. Count of elements : 1771

  69. Stream size : 50.4 KiB (0%)

  70. Title : SDH

  71. Language : English

  72. Default : No

  73. Forced : No


  74. Text #2

  75. ID : 4

  76. Format : UTF-8

  77. Codec ID : S_TEXT/UTF8

  78. Codec ID/Info : UTF-8 Plain Text

  79. Duration : 2 h 3 min

  80. Bit rate : 56 b/s

  81. Count of elements : 1801

  82. Stream size : 51.0 KiB (0%)

  83. Title : Latinoamérica SDH

  84. Language : Spanish

  85. Default : No

  86. Forced : No


  87. Text #3

  88. ID : 5

  89. Format : UTF-8

  90. Codec ID : S_TEXT/UTF8

  91. Codec ID/Info : UTF-8 Plain Text

  92. Duration : 2 h 3 min

  93. Bit rate : 43 b/s

  94. Count of elements : 1253

  95. Stream size : 39.3 KiB (0%)

  96. Title : Latinoamérica

  97. Language : Spanish

  98. Default : No

  99. Forced : No


  100. Text #4

  101. ID : 6

  102. Format : UTF-8

  103. Codec ID : S_TEXT/UTF8

  104. Codec ID/Info : UTF-8 Plain Text

  105. Duration : 1 h 56 min

  106. Bit rate : 47 b/s

  107. Count of elements : 1362

  108. Stream size : 40.9 KiB (0%)

  109. Title : 中文(简体)

  110. Language : Chinese

  111. Default : No

  112. Forced : No


  113. Text #5

  114. ID : 7

  115. Format : UTF-8

  116. Codec ID : S_TEXT/UTF8

  117. Codec ID/Info : UTF-8 Plain Text

  118. Duration : 1 h 56 min

  119. Bit rate : 47 b/s

  120. Count of elements : 1361

  121. Stream size : 40.6 KiB (0%)

  122. Title : 中文(繁體)

  123. Language : Chinese

  124. Default : No

  125. Forced : No


  126. Text #6

  127. ID : 8

  128. Format : UTF-8

  129. Codec ID : S_TEXT/UTF8

  130. Codec ID/Info : UTF-8 Plain Text

  131. Duration : 1 h 56 min

  132. Bit rate : 96 b/s

  133. Count of elements : 1362

  134. Stream size : 82.0 KiB (0%)

  135. Title : 简英双语

  136. Language : Chinese

  137. Default : No

  138. Forced : No


  139. Text #7

  140. ID : 9

  141. Format : UTF-8

  142. Codec ID : S_TEXT/UTF8

  143. Codec ID/Info : UTF-8 Plain Text

  144. Duration : 1 h 56 min

  145. Bit rate : 96 b/s

  146. Count of elements : 1362

  147. Stream size : 82.0 KiB (0%)

  148. Title : 繁英双语

  149. Language : Chinese

  150. Default : No

  151. Forced : No


  152. Text #8

  153. ID : 10

  154. Format : PGS

  155. Codec ID : S_HDMV/PGS

  156. Codec ID/Info : Picture based subtitle format used on BDs/HD-DVDs

  157. Duration : 1 h 56 min

  158. Bit rate : 34.3 kb/s

  159. Count of elements : 2461

  160. Stream size : 28.6 MiB (0%)

  161. Title : 简英双语特效

  162. Language : Chinese

  163. Default : No

  164. Forced : No


复制代码




文件下载


除非特别注明,本文『黑亚当[杜比视界版本][简繁英双语特效字幕].Black.Adam.2022.2160p.HMAX.WEB-DL.DDP5.1.Atmos.DoVi.x265-MOMOWEB 16.33GB』来源于互联网机器人自动抓取,非本站原创。 浮游电影网不对本文拥有版权,如有侵犯,请联系邮箱:fuyouu#yandex.com[#换成@]投诉。我们会在15个工作日内删除。 但烦请转载时请标明出处:“本文转载于『浮游电影网』,原文地址:https://www.fuyouu.com/22918.html

评论吧骚年!

发表你的见解   

昵称*

E-mail*(建议输入,以便收到博主回复的提示邮件)

验证码*

您可以使用eMule或eMule Mod(Windows)、aMule(Win、Linux、Mac)等软件下载eD2k链接。。
eMule收藏集(.emulecollection)文件是您选中的所有链接的列表文件。eMule可以直接下载它们。
按住SHIFT键选择可以选中多个选择框。
可用文件名和大小选择器来选择文件。
文件名选择器帮您根据文件名称或后缀来选择文件。不分大小写。
符号使用:
和:空格( )、+
不包含:-
或:|
转义:一对英文引号("");
匹配开头:^
匹配结尾:$
例如:
选中所有名称中包含有“eMule”或“0.49c”字眼,但不包含有“exe”字眼的:emule|0.49c -exe
选中所有名称的开头是“eMule”,结尾是“0.49c”的:^emule 0.49c$
选中所有名称中带有“eMule 0.49c”的(必须是“eMule 0.49c”,中间没有别的字符,不能是“eMule fake 0.49c”),需要转义:"emule 0.49c"
大小选择器帮您根据文件大小选择文件。