当前位置: 首页 >> 海外电影 >> 维斯珀[简繁英双语字幕].Vesper.2022.BluRay.1080p.DTS-HD.MA7.1.x265.10bit-ALT 7.45GB >> 正文

维斯珀[简繁英双语字幕].Vesper.2022.BluRay.1080p.DTS-HD.MA7.1.x265.10bit-ALT 7.45GB

2022年12月17日 15:37:41     电影发布:来源于网络     电影分类:海外电影     评论(0)    

◎标 题 维斯珀

◎译 名 Vesper Seeds / 黄昏之种

◎片 名 Vesper

◎年 代 2022

◎产 地 立陶宛 / 法国 / 比利时

◎类 别 剧情 / 科幻 / 冒险

◎语 言 英语

◎上映日期 2022-07-03(纳沙泰尔国际奇幻影展) / 2022-09-30(美国)

◎IMDb评分 7.2/10 (990人评价)

◎IMDb链接 https://www.imdb.com/title/tt20225374/

◎豆瓣链接 https://movie.douban.com/subject/35322695/

◎片 长 113分钟

◎导 演 Kristina Buozyte Kristina Buozyte

Bruno Samper Bruno Samper

◎编 剧 Kristina Buozyte Kristina Buozyte

Bruno Samper Bruno Samper

◎演 员 拉菲拉·查普曼 Raffiella Chapman

埃迪·马森 Eddie Marsan

罗西·麦克尤恩 Rosy McEwen

理查德·布雷克 Richard Brake

◎简 介

At some point in the future the Earth’s ecosystem collapses. A tough 13-year-old called Vesper, whose father is paralysed, tries to get food for them wherever she can. When she finds a mysterious woman in the forest one day she starts to hope that things will change… Thanks to a combination of a unique artistic concept, strong performances from the cast, and an imaginative scor...

  1. ##### MediaInfo ######

  2. General

  3. Unique ID : 57070415159255626440678401602002262381 (0x2AEF5CB5D268AA61088FE1DCF486996D)

  4. Complete name : Vesper.2022.BluRay.1080p.DTS-HD.MA7.1.x265.10bit-ALT.mkv

  5. Format : Matroska

  6. Format version : Version 4

  7. File size : 7.45 GiB

  8. Duration : 1 h 54 min

  9. Overall bit rate mode : Variable

  10. Overall bit rate : 9 340 kb/s

  11. Encoded date : UTC 2022-12-16 00:46:43

  12. Writing application : mkvmerge v49.0.0 ('Sick Of Losing Soulmates') 64-bit

  13. Writing library : libebml v1.4.0 + libmatroska v1.6.1


  14. Video

  15. ID : 1

  16. Format : HEVC

  17. Format/Info : High Efficiency Video Coding

  18. Format profile : Main [email protected]@High

  19. Codec ID : V_MPEGH/ISO/HEVC

  20. Duration : 1 h 54 min

  21. Bit rate : 4 314 kb/s

  22. Width : 1 920 pixels

  23. Height : 804 pixels

  24. Display aspect ratio : 2.40:1

  25. Frame rate mode : Constant

  26. Frame rate : 24.000 FPS

  27. Color space : YUV

  28. Chroma subsampling : 4:2:0

  29. Bit depth : 10 bits

  30. Bits/(Pixel*Frame) : 0.116

  31. Stream size : 3.44 GiB (46%)

  32. Title : HEVC, [email protected]@High, 24 fps @ 4314 kbps

  33. Writing library : x265 3.5+40-6064f96a6:[Windows][GCC 12.2.0][64 bit] 10bit

  34. Encoding settings : cpuid=1111039 / frame-threads=4 / numa-pools=16 / wpp / no-pmode / no-pme / no-psnr / no-ssim / log-level=2 / input-csp=1 / input-res=1920x804 / interlace=0 / total-frames=164460 / level-idc=51 / high-tier=1 / uhd-bd=0 / ref=5 / no-allow-non-conformance / no-repeat-headers / annexb / no-aud / no-eob / no-eos / no-hrd / info / hash=0 / no-temporal-layers / open-gop / min-keyint=24 / keyint=240 / gop-lookahead=0 / bframes=6 / b-adapt=2 / b-pyramid / bframe-bias=0 / rc-lookahead=40 / lookahead-slices=0 / scenecut=40 / no-hist-scenecut / radl=0 / no-splice / no-intra-refresh / ctu=32 / min-cu-size=8 / no-rect / no-amp / max-tu-size=32 / tu-inter-depth=3 / tu-intra-depth=3 / limit-tu=4 / rdoq-level=2 / dynamic-rd=0.00 / no-ssim-rd / signhide / no-tskip / nr-intra=0 / nr-inter=0 / no-constrained-intra / no-strong-intra-smoothing / max-merge=4 / limit-refs=1 / limit-modes / me=3 / subme=4 / merange=25 / temporal-mvp / no-frame-dup / no-hme / weightp / weightb / no-analyze-src-pics / deblock=-3:-3 / no-sao / no-sao-non-deblock / rd=6 / selective-sao=0 / no-early-skip / rskip / no-fast-intra / no-tskip-fast / no-cu-lossless / b-intra / no-splitrd-skip / rdpenalty=0 / psy-rd=2.00 / psy-rdoq=1.00 / no-rd-refine / no-lossless / cbqpoffs=-2 / crqpoffs=-2 / rc=crf / crf=17.0 / qcomp=0.65 / qpstep=4 / stats-write=0 / stats-read=0 / vbv-maxrate=80000 / vbv-bufsize=80000 / vbv-init=0.9 / min-vbv-fullness=50.0 / max-vbv-fullness=80.0 / crf-max=0.0 / crf-min=0.0 / ipratio=1.40 / pbratio=1.30 / aq-mode=2 / aq-strength=0.85 / cutree / zone-count=0 / no-strict-cbr / qg-size=32 / no-rc-grain / qpmax=69 / qpmin=0 / no-const-vbv / sar=1 / overscan=0 / videoformat=5 / range=0 / colorprim=1 / transfer=1 / colormatrix=1 / chromaloc=0 / display-window=0 / cll=0,0 / min-luma=0 / max-luma=1023 / log2-max-poc-lsb=8 / vui-timing-info / vui-hrd-info / slices=1 / no-opt-qp-pps / no-opt-ref-list-length-pps / no-multi-pass-opt-rps / scenecut-bias=0.05 / hist-threshold=0.03 / no-opt-cu-delta-qp / no-aq-motion / no-hdr10 / no-hdr10-opt / no-dhdr10-opt / no-idr-recovery-sei / analysis-reuse-level=0 / analysis-save-reuse-level=0 / analysis-load-reuse-level=0 / scale-factor=0 / refine-intra=0 / refine-inter=0 / refine-mv=1 / refine-ctu-distortion=0 / no-limit-sao / ctu-info=0 / no-lowpass-dct / refine-analysis-type=0 / copy-pic=1 / max-ausize-factor=1.0 / no-dynamic-refine / no-single-sei / no-hevc-aq / no-svt / no-field / qp-adaptation-range=1.00 / scenecut-aware-qp=0conformance-window-offsets / right=0 / bottom=0 / decoder-max-rate=0 / no-vbv-live-multi-pass

  35. Language : English

  36. Default : Yes

  37. Forced : No

  38. Color range : Limited

  39. Color primaries : BT.709

  40. Transfer characteristics : BT.709

  41. Matrix coefficients : BT.709


  42. Audio

  43. ID : 2

  44. Format : DTS XLL

  45. Format/Info : Digital Theater Systems

  46. Commercial name : DTS-HD Master Audio

  47. Codec ID : A_DTS

  48. Duration : 1 h 54 min

  49. Bit rate mode : Variable

  50. Bit rate : 4 950 kb/s

  51. Channel(s) : 2 channels

  52. Sampling rate : 48.0 kHz

  53. Frame rate : 93.750 FPS (512 SPF)

  54. Bit depth : 24 bits

  55. Compression mode : Lossless

  56. Stream size : 3.95 GiB (53%)

  57. Title : English DTS-HD Master Audio 7.1 @ 4950 kbps

  58. Language : English

  59. Default : Yes

  60. Forced : No


  61. Text #1

  62. ID : 3

  63. Format : PGS

  64. Codec ID : S_HDMV/PGS

  65. Codec ID/Info : Picture based subtitle format used on BDs/HD-DVDs

  66. Duration : 1 h 33 min

  67. Bit rate : 13.8 kb/s

  68. Count of elements : 1197

  69. Stream size : 9.22 MiB (0%)

  70. Title : Eng/SUP

  71. Language : English

  72. Default : No

  73. Forced : No


  74. Text #2

  75. ID : 4

  76. Format : PGS

  77. Codec ID : S_HDMV/PGS

  78. Codec ID/Info : Picture based subtitle format used on BDs/HD-DVDs

  79. Duration : 1 h 46 min

  80. Bit rate : 12.4 kb/s

  81. Count of elements : 1212

  82. Stream size : 9.46 MiB (0%)

  83. Title : Chs/SUP 简体

  84. Language : Chinese

  85. Default : Yes

  86. Forced : No


  87. Text #3

  88. ID : 5

  89. Format : PGS

  90. Codec ID : S_HDMV/PGS

  91. Codec ID/Info : Picture based subtitle format used on BDs/HD-DVDs

  92. Duration : 1 h 46 min

  93. Bit rate : 12.9 kb/s

  94. Count of elements : 1212

  95. Stream size : 9.82 MiB (0%)

  96. Title : Cht/SUP 繁体

  97. Language : Chinese

  98. Default : No

  99. Forced : No


  100. Text #4

  101. ID : 6

  102. Format : PGS

  103. Codec ID : S_HDMV/PGS

  104. Codec ID/Info : Picture based subtitle format used on BDs/HD-DVDs

  105. Duration : 1 h 46 min

  106. Bit rate : 20.1 kb/s

  107. Count of elements : 1212

  108. Stream size : 15.4 MiB (0%)

  109. Title : Chs/SUP 简英双语

  110. Language : Chinese

  111. Default : No

  112. Forced : No


  113. Text #5

  114. ID : 7

  115. Format : PGS

  116. Codec ID : S_HDMV/PGS

  117. Codec ID/Info : Picture based subtitle format used on BDs/HD-DVDs

  118. Duration : 1 h 46 min

  119. Bit rate : 20.6 kb/s

  120. Count of elements : 1212

  121. Stream size : 15.7 MiB (0%)

  122. Title : Cht/SUP 繁英双语

  123. Language : Chinese

  124. Default : No

  125. Forced : No


  126. Menu

  127. 00:00:00.000 : en:第 01 章

  128. 00:06:44.333 : en:第 02 章

  129. 00:16:34.125 : en:第 03 章

  130. 00:25:16.542 : en:第 04 章

  131. 00:34:21.333 : en:第 05 章

  132. 00:42:47.792 : en:第 06 章

  133. 00:50:02.125 : en:第 07 章

  134. 00:59:14.000 : en:第 08 章

  135. 01:06:14.667 : en:第 09 章

  136. 01:17:09.708 : en:第 10 章

  137. 01:23:55.417 : en:第 11 章

  138. 01:40:02.292 : en:第 12 章


复制代码




文件下载


除非特别注明,本文『维斯珀[简繁英双语字幕].Vesper.2022.BluRay.1080p.DTS-HD.MA7.1.x265.10bit-ALT 7.45GB』来源于互联网机器人自动抓取,非本站原创。 浮游电影网不对本文拥有版权,如有侵犯,请联系邮箱:fuyouu#yandex.com[#换成@]投诉。我们会在15个工作日内删除。 但烦请转载时请标明出处:“本文转载于『浮游电影网』,原文地址:https://www.fuyouu.com/22917.html

评论吧骚年!

发表你的见解   

昵称*

E-mail*(建议输入,以便收到博主回复的提示邮件)

验证码*

您可以使用eMule或eMule Mod(Windows)、aMule(Win、Linux、Mac)等软件下载eD2k链接。。
eMule收藏集(.emulecollection)文件是您选中的所有链接的列表文件。eMule可以直接下载它们。
按住SHIFT键选择可以选中多个选择框。
可用文件名和大小选择器来选择文件。
文件名选择器帮您根据文件名称或后缀来选择文件。不分大小写。
符号使用:
和:空格( )、+
不包含:-
或:|
转义:一对英文引号("");
匹配开头:^
匹配结尾:$
例如:
选中所有名称中包含有“eMule”或“0.49c”字眼,但不包含有“exe”字眼的:emule|0.49c -exe
选中所有名称的开头是“eMule”,结尾是“0.49c”的:^emule 0.49c$
选中所有名称中带有“eMule 0.49c”的(必须是“eMule 0.49c”,中间没有别的字符,不能是“eMule fake 0.49c”),需要转义:"emule 0.49c"
大小选择器帮您根据文件大小选择文件。