当前位置: 首页 >> 国产电影 >> 万里归途[60帧率版本][国语配音/中文字幕].Home.Coming.2022.2160p.60fps.WEB-DL.H265.DDP5.1-DreamHD 4.35GB >> 正文

万里归途[60帧率版本][国语配音/中文字幕].Home.Coming.2022.2160p.60fps.WEB-DL.H265.DDP5.1-DreamHD 4.35GB

2022年12月17日 15:36:53     电影发布:来源于网络     电影分类:国产电影     评论(0)    

◎标 题 万里归途

◎译 名 翻译官 / Home Coming

◎年 代 2022

◎产 地 中国大陆

◎类 别 剧情 / 战争

◎语 言 汉语普通话 / 阿拉伯语 / 英语

◎上映日期 2022-09-30(中国大陆)

◎IMDb评分 6.6/10 (203人评价)

◎IMDb链接 https://www.imdb.com/title/tt22049410/

◎豆瓣评分 7.4/10 (256201人评价)

◎豆瓣链接 https://movie.douban.com/subject/26654184/

◎片 长 137分钟

◎导 演 饶晓志 Xiaozhi Rao

◎编 剧 秦海燕 Haiyan Qin

史册 Ce Shi

雷志龙 Zhilong Lei

步京委 Jingwei Bu

◎演 员 张译 Yi Zhang

王俊凯 Karry Wang

殷桃 Tao Yin

成泰燊 Taishen Cheng

张子贤 Zixian Zhang

陈昊宇 Amy Chen

王迅 Xun Wang

万茜 Qian Wan

李雪健 Xuejian Li

李晨 Chen Li

王智 Zhi Wang

吴京 Jing Wu

温韬 Tao Wen

吴恩璇 Enxuan Wu

国义骞 Yiqian Guo

谢承颖 Chengying Xie

李路琦 Luqi Li

赵梓冲 Zichong Zhao

王照清 Zhaoqing Wang

朱超艺 Chaoyi Zhu

闫昌 Chang Yan

李凯 Kai Li

谢欣华 Xinhua Xie

侯晓童 Xiaotong Hou

穆丽燕 Liyan Mu

奥梅尔·尤祖亚克 Omer Yuzuak

埃兰·艾哈迈德·洛特夫·拉吉·阿尔加赫菲 Elain Ahmed Lotf Rageh Algahefi

小伊万·马弗里克 Ivan Jr. Maverick

尤金·芬克尔 Yves Finkel

埃米尔·扎格鲁尔 Amro Zaghloul

艾哈迈德·穆罕默德·贾比尔·阿尔卡索姆 Ahmed Mohammed Jaber Alkalthoom

郭帆 Frant Gwo

王红卫 Hongwei Wang

王菲 Faye Wong

李衡 Hank Lee

黄子珈 Zijia Huang

◎简 介

电影根据真实事件改编。

努米亚共和国爆发战乱,前驻地外交官宗大伟(张译 饰)与外交部新人成朗(王俊凯 饰)受命前往协助撤侨。任务顺利结束,却得知还有一批被困同胞,正在白婳(殷桃 饰)的带领下,前往边境撤离点。情急之下,两人放弃了回家机会,逆行进入战区。赤手空拳的外交官,穿越战火和荒漠,面对反叛军的枪口,如何带领同胞走出一条回家之路……

  1. ##### MediaInfo ######

  2. General

  3. Unique ID : 176874042284931278873433887766691893903 (0x8510B391B63B92F0C605F579F6D2D28F)

  4. Complete name : Home.Coming.2022.2160p.60fps.WEB-DL.H265.DDP5.1-DreamHD.mkv

  5. Format : Matroska

  6. Format version : Version 4

  7. File size : 4.35 GiB

  8. Duration : 2 h 17 min

  9. Overall bit rate : 4 536 kb/s

  10. Encoded date : UTC 2022-12-16 08:03:50

  11. Writing application : mkvmerge v67.0.0 ('Under Stars') 64-bit

  12. Writing library : libebml v1.4.2 + libmatroska v1.6.4


  13. Video

  14. ID : 1

  15. Format : HEVC

  16. Format/Info : High Efficiency Video Coding

  17. Format profile : Main [email protected]@Main

  18. Codec ID : V_MPEGH/ISO/HEVC

  19. Duration : 2 h 17 min

  20. Bit rate : 4 086 kb/s

  21. Width : 3 840 pixels

  22. Height : 1 512 pixels

  23. Display aspect ratio : 2.540

  24. Frame rate mode : Constant

  25. Frame rate : 60.000 FPS

  26. Color space : YUV

  27. Chroma subsampling : 4:2:0

  28. Bit depth : 10 bits

  29. Bits/(Pixel*Frame) : 0.012

  30. Stream size : 3.92 GiB (90%)

  31. Language : Chinese

  32. Default : Yes

  33. Forced : No

  34. Color range : Limited

  35. Color primaries : BT.709

  36. Transfer characteristics : BT.709

  37. Matrix coefficients : BT.709


  38. Audio #1

  39. ID : 2

  40. Format : E-AC-3

  41. Format/Info : Enhanced AC-3

  42. Commercial name : Dolby Digital Plus

  43. Codec ID : A_EAC3

  44. Duration : 2 h 17 min

  45. Bit rate mode : Constant

  46. Bit rate : 256 kb/s

  47. Channel(s) : 6 channels

  48. Channel layout : L R C LFE Ls Rs

  49. Sampling rate : 48.0 kHz

  50. Frame rate : 31.250 FPS (1536 SPF)

  51. Compression mode : Lossy

  52. Stream size : 252 MiB (6%)

  53. Title : Mandarin [DDP5.1]

  54. Language : Chinese

  55. Service kind : Complete Main

  56. Default : Yes

  57. Forced : No


  58. Audio #2

  59. ID : 3

  60. Format : AAC LC

  61. Format/Info : Advanced Audio Codec Low Complexity

  62. Codec ID : A_AAC-2

  63. Duration : 2 h 17 min

  64. Bit rate : 192 kb/s

  65. Channel(s) : 2 channels

  66. Channel layout : L R

  67. Sampling rate : 44.1 kHz

  68. Frame rate : 43.066 FPS (1024 SPF)

  69. Compression mode : Lossy

  70. Stream size : 186 MiB (4%)

  71. Title : Mandarin [AAC2.0]

  72. Language : Chinese

  73. Default : No

  74. Forced : No


复制代码


文件下载



除非特别注明,本文『万里归途[60帧率版本][国语配音/中文字幕].Home.Coming.2022.2160p.60fps.WEB-DL.H265.DDP5.1-DreamHD 4.35GB』来源于互联网机器人自动抓取,非本站原创。 浮游电影网不对本文拥有版权,如有侵犯,请联系邮箱:fuyouu#yandex.com[#换成@]投诉。我们会在15个工作日内删除。 但烦请转载时请标明出处:“本文转载于『浮游电影网』,原文地址:https://www.fuyouu.com/22916.html

评论吧骚年!

发表你的见解   

昵称*

E-mail*(建议输入,以便收到博主回复的提示邮件)

验证码*

您可以使用eMule或eMule Mod(Windows)、aMule(Win、Linux、Mac)等软件下载eD2k链接。。
eMule收藏集(.emulecollection)文件是您选中的所有链接的列表文件。eMule可以直接下载它们。
按住SHIFT键选择可以选中多个选择框。
可用文件名和大小选择器来选择文件。
文件名选择器帮您根据文件名称或后缀来选择文件。不分大小写。
符号使用:
和:空格( )、+
不包含:-
或:|
转义:一对英文引号("");
匹配开头:^
匹配结尾:$
例如:
选中所有名称中包含有“eMule”或“0.49c”字眼,但不包含有“exe”字眼的:emule|0.49c -exe
选中所有名称的开头是“eMule”,结尾是“0.49c”的:^emule 0.49c$
选中所有名称中带有“eMule 0.49c”的(必须是“eMule 0.49c”,中间没有别的字符,不能是“eMule fake 0.49c”),需要转义:"emule 0.49c"
大小选择器帮您根据文件大小选择文件。