当前位置: 首页 >> 国产电影 >> 我心飞扬[60帧率版本][国语配音/中文字幕].Breaking.Through.2022.2160p.60FPS.WEB-DL.H265.AAC-NUMTV 2.96GB >> 正文

我心飞扬[60帧率版本][国语配音/中文字幕].Breaking.Through.2022.2160p.60FPS.WEB-DL.H265.AAC-NUMTV 2.96GB

2022年12月17日 15:36:13     电影发布:来源于网络     电影分类:国产电影     评论(0)    

◎标 题 我心飞扬

◎译 名 Breaking Through

◎年 代 2022

◎产 地 中国大陆

◎类 别 剧情 / 运动

◎语 言 汉语普通话

◎上映日期 2022-02-25(中国大陆)

◎IMDb评分 7.1/10 (11人评价)

◎IMDb链接 https://www.imdb.com/title/tt13743198/

◎豆瓣链接 https://movie.douban.com/subject/32712599/

◎片 长 104分钟

◎导 演 王放放 Fangfang Wang

◎编 剧 王浙滨 Zhebin Wang

王放放 Fangfang Wang

何可可 Keke He

◎演 员 孟美岐 Meiqi Meng

夏雨 Yu Xia

萨日娜 Rina Sa

裴魁山 Kuishan Pei

焦刚 Gang Jiao

张国强 Guoqiang Zhang

梁文慧 Wenhui Liang

许沁 Qin Xu

李沐子 Muzi Li

李嘉鑫 Jiaxin Li

李宁悦 Ningyue Li

米特 Mi Te

徐峥 Zheng Xu

贾玉梅

刘瑞芳 Ruifang Liu

王浙滨 Zhebin Wang

唐科

马丁

叶婷

马鑫

马奕谦 Yiqian Ma

王家福

曹寅 Yin Cao

刘懿增 Yizeng Liu

雒海良 Hailiang Luo

周鹏宇 Zhou Pengyu

赵津

老A Law Ah

◎简 介

电影灵感源自中国冬奥金牌零的突破,讲述冬奥健儿拼搏进取、为国争光的故事。1980年中国代表团开始参加冬奥会,屡次与金牌失之交臂,失败与不甘像针一样狠狠刺痛中国人的心。为实现零的突破,秦杉组建以杨帆为代表的中国短道速滑国家队,临危受命立志一雪前耻。两人向金牌发起冲击,师徒关系也面临着激烈的碰撞和重重考验……

影片是“中国奥林匹克体育电影三部曲(《一个人的奥林匹克》《许海峰的枪》《我心飞扬》)”的第三部。

  1. ##### MediaInfo ######

  2. General

  3. Complete name : 我心飞扬.Breaking.Through.2022.2160p.60FPS.WEB-DL.H265.AAC-NUMTV.mp4

  4. Format : MPEG-4

  5. Format profile : Base Media

  6. Codec ID : isom (isom/iso2/mp41)

  7. File size : 2.96 GiB

  8. Duration : 1 h 43 min

  9. Overall bit rate mode : Variable

  10. Overall bit rate : 4 104 kb/s

  11. Writing application : OurTV Multimedia Platform


  12. Video

  13. ID : 1

  14. Format : HEVC

  15. Format/Info : High Efficiency Video Coding

  16. Format profile : [email protected]@Main

  17. Codec ID : hev1

  18. Codec ID/Info : High Efficiency Video Coding

  19. Duration : 1 h 43 min

  20. Bit rate : 3 901 kb/s

  21. Width : 3 840 pixels

  22. Height : 1 608 pixels

  23. Display aspect ratio : 2.40:1

  24. Frame rate mode : Constant

  25. Frame rate : 60.000 FPS

  26. Color space : YUV

  27. Chroma subsampling : 4:2:0

  28. Bit depth : 8 bits

  29. Bits/(Pixel*Frame) : 0.011

  30. Stream size : 2.82 GiB (95%)

  31. Color range : Limited

  32. Color primaries : BT.709

  33. Transfer characteristics : BT.709

  34. Matrix coefficients : BT.709

  35. Codec configuration box : hvcC


  36. Audio

  37. ID : 2

  38. Format : AAC LC

  39. Format/Info : Advanced Audio Codec Low Complexity

  40. Codec ID : mp4a-40-2

  41. Duration : 1 h 43 min

  42. Bit rate mode : Variable

  43. Bit rate : 192 kb/s

  44. Channel(s) : 2 channels

  45. Channel layout : L R

  46. Sampling rate : 44.1 kHz

  47. Frame rate : 43.066 FPS (1024 SPF)

  48. Compression mode : Lossy

  49. Stream size : 140 MiB (5%)

  50. Language : Chinese

  51. Default : Yes

  52. Alternate group : 1


复制代码




文件下载


除非特别注明,本文『我心飞扬[60帧率版本][国语配音/中文字幕].Breaking.Through.2022.2160p.60FPS.WEB-DL.H265.AAC-NUMTV 2.96GB』来源于互联网机器人自动抓取,非本站原创。 浮游电影网不对本文拥有版权,如有侵犯,请联系邮箱:fuyouu#yandex.com[#换成@]投诉。我们会在15个工作日内删除。 但烦请转载时请标明出处:“本文转载于『浮游电影网』,原文地址:https://www.fuyouu.com/22915.html

评论吧骚年!

发表你的见解   

昵称*

E-mail*(建议输入,以便收到博主回复的提示邮件)

验证码*

您可以使用eMule或eMule Mod(Windows)、aMule(Win、Linux、Mac)等软件下载eD2k链接。。
eMule收藏集(.emulecollection)文件是您选中的所有链接的列表文件。eMule可以直接下载它们。
按住SHIFT键选择可以选中多个选择框。
可用文件名和大小选择器来选择文件。
文件名选择器帮您根据文件名称或后缀来选择文件。不分大小写。
符号使用:
和:空格( )、+
不包含:-
或:|
转义:一对英文引号("");
匹配开头:^
匹配结尾:$
例如:
选中所有名称中包含有“eMule”或“0.49c”字眼,但不包含有“exe”字眼的:emule|0.49c -exe
选中所有名称的开头是“eMule”,结尾是“0.49c”的:^emule 0.49c$
选中所有名称中带有“eMule 0.49c”的(必须是“eMule 0.49c”,中间没有别的字符,不能是“eMule fake 0.49c”),需要转义:"emule 0.49c"
大小选择器帮您根据文件大小选择文件。