当前位置: 首页 >> 动画电影 >> 永生之酒[共15部合集][中文字幕].Baccano.2007.Complete.BluRay.1080p.LPCM2.0.x265.10bit-DreamHD 19.71GB >> 正文

永生之酒[共15部合集][中文字幕].Baccano.2007.Complete.BluRay.1080p.LPCM2.0.x265.10bit-DreamHD 19.71GB

2022年12月16日 21:20:14     电影发布:来源于网络     电影分类:动画电影     评论(0)    



◎标  题 永生之酒
◎译  名 为酒而狂 / Baccano! / Baccano! 大騷動!
◎片  名 バッカーノ!
◎年  代 2007
◎产  地 美国 / 日本
◎类  别 喜剧 / 动作 / 动画 / 惊悚 / 恐怖 / 犯罪 / 奇幻 / 冒险
◎语  言 英语 / 日语
◎上映日期 2007-07-26(日本)
◎IMDb评分 8.2/10 (11938人评价)
◎IMDb链接 https://www.imdb.com/title/tt1334722/
◎豆瓣评分 9.1/10 (36714人评价)
◎豆瓣链接 https://movie.douban.com/subject/3326764/
◎片  长 25分钟
◎导  演 大森贵弘 Takahiro Omori
       小坂春女 Kosaka Harume
       米田光宏 Yoneda Mitsuhiro
       中野英明 Hideaki Nakano
       川越淳 Kawagoe Jun
       寺东克己 Terahigashi Katsumi
       大畑清隆 Oohata Kiyotaka
       神户守 Mamoru Kanbe
       田村耕太郎 Tamura Koutarou
       松浦锭平 Matsuura Jouhei
       原博 Hara Hiroshi
◎编  剧 成田良悟 Ryougo Narita
       高木登 Noboru Takagi
◎演  员 小野坂昌也 Masaya Onosaka
       青木沙耶香 Aoki Sayaka
       吉野裕行 Hiroyuki Yoshino
       宫本充 Mitsuru Miyamoto
       小林沙苗 Sanae Kobayashi
       藤原启治 Keiji Fujiwara
       阪口大助 Daisuke Sakaguchi
       小林优 Yu Kobayashi
       森田成一 Masakazu Morita
       广桥凉 Ryô Hirohashi
       千叶进步 Susumu Chiba
       太田哲治 Tetsuharu Ohta
       有本钦隆 Kinryû Arimoto
       菅生隆之 Takayuki Sugo
       中田和宏 Kazuhiro Nakata
       伊藤美纪 Miki Itô
       后藤沙绪里 Saori Gotô
       神田朱未 Akemi Kanda
       子安武人 Takehito Koyasu
       三宅健太 Kenta Miyake
       山口胜平 Kappei Yamaguchi
       大林隆介 Ryûnosuke Ôbayashi
       若本规夫 Norio Wakamoto
       井上麻里奈 Marina Inoue
       羽多野涉 Wataru Hatano
       伊丸冈笃 Atsushi Imaruoka
       永泽菜教 Nao Nagasawa
       平野俊隆 Hirano Toshitaka
       古泽彻 Tôru Furusawa
       楠大典 Taiten Kusunoki
       斋藤千和 Chiwa Saito
       伊藤静 Shizuka Ito
       神奈延年 Nobutoshi Canna
       大畑伸太郎 Shintarô Oohata
       高垣彩阳 Ayahi Takagaki
       斧笃 Ono Atsushi
       长克巳 Katsumi Chô
       塚田正昭 Masaaki Tsukada
       速水奖 Shô Hayami
       河本邦弘 Kunihiro Kawamoto
       浪川大辅 Daisuke Namikawa
       成田剑 Ken Narita
       小伏伸之 Nobuyuki Kobushi
       西村知道 Tomomichi Nishimura
       杉田智和 Tomokazu Sugita
       布琳娜·帕伦西娅 Brina Palencia
       松嵜丽 Rei Matsuzaki
       婕德·萨克斯顿 Jad Saxton
       下山吉光 Yoshimitsu Shimoyama
       传坂勉 Densaka Tsutomu
       菊田幸一 Kikuta Kouichi

◎简  介
  中世纪,炼金术士们以巨大的代价从恶魔的手中得到了传说中的永生之酒,凡是喝下永生之酒的人们,正如它的名字那样,将会得到永远不会死亡的肉体。永生之酒带来了希望,却也引发了空前绝后的灾难,因为私欲和利益,与此酒相关的人士一个接着一个失去了踪迹。随着禁酒令的颁布,永生之酒的下落逐渐成为了谜题,然而数年过后,有关它重出江湖的消息再次被传得沸沸扬扬,在纽约的黑道中激起了涟漪。                                    
                                身怀绝技的少年洛菲(吉野裕行 配音)、不老不死的炼金术士阿洛瓦(宫本充 配音)、个性莽撞大大咧咧的夫妻艾萨克(小野坂昌也 配音)和哈文特(青木静香 配音),这些身份从无交集的人们,也为了追寻永生之酒的下落而走到了一起。



  1. 合集文件列表:

  2. 1.Baccano.2007.E01.BluRay.1080p.LPCM2.0.x265.10bit-DreamHD.mkv 1.20GB

  3. 2.Baccano.2007.E02.BluRay.1080p.LPCM2.0.x265.10bit-DreamHD.mkv 1.19GB

  4. 3.Baccano.2007.E03.BluRay.1080p.LPCM2.0.x265.10bit-DreamHD.mkv 1.24GB

  5. 4.Baccano.2007.E04.BluRay.1080p.LPCM2.0.x265.10bit-DreamHD.mkv 1.28GB

  6. 5.Baccano.2007.E05.BluRay.1080p.LPCM2.0.x265.10bit-DreamHD.mkv 1.14GB

  7. 6.Baccano.2007.E06.BluRay.1080p.LPCM2.0.x265.10bit-DreamHD.mkv 1.09GB

  8. 7.Baccano.2007.E08.BluRay.1080p.LPCM2.0.x265.10bit-DreamHD.mkv 1.09GB

  9. 8.Baccano.2007.E09.BluRay.1080p.LPCM2.0.x265.10bit-DreamHD.mkv 1.18GB

  10. 9.Baccano.2007.E10.BluRay.1080p.LPCM2.0.x265.10bit-DreamHD.mkv 1.13GB

  11. 10.Baccano.2007.E11.BluRay.1080p.LPCM2.0.x265.10bit-DreamHD.mkv 1.15GB

  12. 11.Baccano.2007.E12.BluRay.1080p.LPCM2.0.x265.10bit-DreamHD.mkv 1.33GB

  13. 12.Baccano.2007.E13.BluRay.1080p.LPCM2.0.x265.10bit-DreamHD.mkv 1.31GB

  14. 13.Baccano.2007.E14.BluRay.1080p.LPCM2.0.x265.10bit-DreamHD.mkv 1.58GB

  15. 14.Baccano.2007.E15.BluRay.1080p.LPCM2.0.x265.10bit-DreamHD.mkv 1.28GB

  16. 15.Baccano.2007.E16.BluRay.1080p.LPCM2.0.x265.10bit-DreamHD.mkv 1.52GB


复制代码





  1. ##### MediaInfo ######

  2. General

  3. Unique ID                                : 136077862924605303136135017856446572620 (0x665FA4A20931F2DA274C915A3555284C)

  4. Complete name                            : Baccano.2007.E01.BluRay.1080p.LPCM2.0.x265.10bit-DreamHD.mkv

  5. Format                                   : Matroska

  6. Format version                           : Version 4

  7. File size                                : 1.20 GiB

  8. Duration                                 : 24 min 41 s

  9. Overall bit rate                         : 6 959 kb/s

  10. Encoded date                             : UTC 2022-05-07 07:24:37

  11. Writing application                      : mkvmerge v67.0.0.76 ('Under Stars') 64-bit

  12. Writing library                          : libebml v1.4.2 + libmatroska v1.6.4


  13. Video

  14. ID                                       : 1

  15. Format                                   : HEVC

  16. Format/Info                              : High Efficiency Video Coding

  17. Format profile                           : Main [email protected]@Main

  18. Codec ID                                 : V_MPEGH/ISO/HEVC

  19. Duration                                 : 24 min 41 s

  20. Bit rate                                 : 5 380 kb/s

  21. Width                                    : 1 920 pixels

  22. Height                                   : 1 080 pixels

  23. Display aspect ratio                     : 16:9

  24. Frame rate mode                          : Constant

  25. Frame rate                               : 23.976 (24000/1001) FPS

  26. Original frame rate                      : 23.976 (23976/1000) FPS

  27. Color space                              : YUV

  28. Chroma subsampling                       : 4:2:0

  29. Bit depth                                : 10 bits

  30. Bits/(Pixel*Frame)                       : 0.108

  31. Stream size                              : 950 MiB (77%)

  32. Writing library                          : x265 3.5+36-9b59d4554:[Windows][GCC 11.2.0][64 bit] 10bit

  33. Encoding settings                        : cpuid=1111039 / frame-threads=5 / numa-pools=32 / wpp / no-pmode / no-pme / no-psnr / no-ssim / log-level=2 / input-csp=1 / input-res=1920x1080 / interlace=0 / total-frames=0 / level-idc=0 / high-tier=1 / uhd-bd=0 / ref=6 / no-allow-non-conformance / no-repeat-headers / annexb / no-aud / no-eob / no-eos / no-hrd / info / hash=0 / no-temporal-layers / no-open-gop / min-keyint=23 / keyint=250 / gop-lookahead=0 / bframes=12 / b-adapt=2 / b-pyramid / bframe-bias=0 / rc-lookahead=24 / lookahead-slices=6 / scenecut=40 / no-hist-scenecut / radl=0 / no-splice / no-intra-refresh / ctu=64 / min-cu-size=8 / no-rect / no-amp / max-tu-size=32 / tu-inter-depth=1 / tu-intra-depth=1 / limit-tu=0 / rdoq-level=0 / dynamic-rd=0.00 / no-ssim-rd / signhide / no-tskip / nr-intra=0 / nr-inter=0 / no-constrained-intra / no-strong-intra-smoothing / max-merge=3 / limit-refs=1 / no-limit-modes / me=3 / subme=7 / merange=48 / temporal-mvp / no-frame-dup / hme / Level / merange / L0,L1,L2=24,36,48 / weightp / weightb / no-analyze-src-pics / deblock=0:0 / sao / no-sao-non-deblock / rd=4 / selective-sao=4 / early-skip / rskip / no-fast-intra / no-tskip-fast / no-cu-lossless / b-intra / no-splitrd-skip / rdpenalty=0 / psy-rd=2.00 / psy-rdoq=0.00 / no-rd-refine / no-lossless / cbqpoffs=0 / crqpoffs=0 / rc=crf / crf=14.0 / qcomp=0.60 / qpstep=4 / stats-write=0 / stats-read=0 / ipratio=1.40 / pbratio=1.30 / aq-mode=1 / aq-strength=1.00 / cutree / zone-count=0 / no-strict-cbr / qg-size=32 / no-rc-grain / qpmax=69 / qpmin=0 / no-const-vbv / sar=0 / overscan=0 / videoformat=5 / range=0 / colorprim=2 / transfer=2 / colormatrix=2 / chromaloc=0 / display-window=0 / cll=0,0 / min-luma=0 / max-luma=1023 / log2-max-poc-lsb=8 / vui-timing-info / vui-hrd-info / slices=1 / no-opt-qp-pps / no-opt-ref-list-length-pps / no-multi-pass-opt-rps / scenecut-bias=0.05 / hist-threshold=0.03 / no-opt-cu-delta-qp / aq-motion / no-hdr10 / no-hdr10-opt / no-dhdr10-opt / no-idr-recovery-sei / analysis-reuse-level=0 / analysis-save-reuse-level=0 / analysis-load-reuse-level=0 / scale-factor=0 / refine-intra=0 / refine-inter=0 / refine-mv=1 / refine-ctu-distortion=0 / no-limit-sao / ctu-info=0 / no-lowpass-dct / refine-analysis-type=0 / copy-pic=1 / max-ausize-factor=1.0 / no-dynamic-refine / no-single-sei / no-hevc-aq / no-svt / no-field / qp-adaptation-range=1.00 / scenecut-aware-qp=0conformance-window-offsets / right=0 / bottom=0 / decoder-max-rate=0 / no-vbv-live-multi-pass

  34. Default                                  : Yes

  35. Forced                                   : No


  36. Audio

  37. ID                                       : 2

  38. ID in the original source medium         : 4352 (0x1100)

  39. Format                                   : PCM

  40. Format settings                          : Little / Signed

  41. Codec ID                                 : A_PCM/INT/LIT

  42. Duration                                 : 24 min 41 s

  43. Bit rate mode                            : Constant

  44. Bit rate                                 : 1 536 kb/s

  45. Channel(s)                               : 2 channels

  46. Sampling rate                            : 48.0 kHz

  47. Frame rate                               : 200.000 FPS (240 SPF)

  48. Bit depth                                : 16 bits

  49. Stream size                              : 271 MiB (22%)

  50. Language                                 : Japanese

  51. Default                                  : Yes

  52. Forced                                   : No

  53. Original source medium                   : Blu-ray


  54. Text #1

  55. ID                                       : 3

  56. ID in the original source medium         : 4610 (0x1202)

  57. Format                                   : PGS

  58. Muxing mode                              : zlib

  59. Codec ID                                 : S_HDMV/PGS

  60. Codec ID/Info                            : Picture based subtitle format used on BDs/HD-DVDs

  61. Duration                                 : 22 min 39 s

  62. Bit rate                                 : 43.2 kb/s

  63. Count of elements                        : 623

  64. Stream size                              : 7.00 MiB (1%)

  65. Title                                    : CHS

  66. Language                                 : Chinese

  67. Default                                  : Yes

  68. Forced                                   : No

  69. Original source medium                   : Blu-ray


  70. Text #2

  71. ID                                       : 4

  72. ID in the original source medium         : 4611 (0x1203)

  73. Format                                   : PGS

  74. Muxing mode                              : zlib

  75. Codec ID                                 : S_HDMV/PGS

  76. Codec ID/Info                            : Picture based subtitle format used on BDs/HD-DVDs

  77. Duration                                 : 22 min 39 s

  78. Bit rate                                 : 44.7 kb/s

  79. Count of elements                        : 623

  80. Stream size                              : 7.25 MiB (1%)

  81. Title                                    : CHT

  82. Language                                 : Chinese

  83. Default                                  : Yes

  84. Forced                                   : No

  85. Original source medium                   : Blu-ray


复制代码






文件下载


除非特别注明,本文『永生之酒[共15部合集][中文字幕].Baccano.2007.Complete.BluRay.1080p.LPCM2.0.x265.10bit-DreamHD 19.71GB』来源于互联网机器人自动抓取,非本站原创。 浮游电影网不对本文拥有版权,如有侵犯,请联系邮箱:fuyouu#yandex.com[#换成@]投诉。我们会在15个工作日内删除。 但烦请转载时请标明出处:“本文转载于『浮游电影网』,原文地址:https://www.fuyouu.com/22914.html

评论吧骚年!

发表你的见解   

昵称*

E-mail*(建议输入,以便收到博主回复的提示邮件)

验证码*

您可以使用eMule或eMule Mod(Windows)、aMule(Win、Linux、Mac)等软件下载eD2k链接。。
eMule收藏集(.emulecollection)文件是您选中的所有链接的列表文件。eMule可以直接下载它们。
按住SHIFT键选择可以选中多个选择框。
可用文件名和大小选择器来选择文件。
文件名选择器帮您根据文件名称或后缀来选择文件。不分大小写。
符号使用:
和:空格( )、+
不包含:-
或:|
转义:一对英文引号("");
匹配开头:^
匹配结尾:$
例如:
选中所有名称中包含有“eMule”或“0.49c”字眼,但不包含有“exe”字眼的:emule|0.49c -exe
选中所有名称的开头是“eMule”,结尾是“0.49c”的:^emule 0.49c$
选中所有名称中带有“eMule 0.49c”的(必须是“eMule 0.49c”,中间没有别的字符,不能是“eMule fake 0.49c”),需要转义:"emule 0.49c"
大小选择器帮您根据文件大小选择文件。