当前位置: 首页 >> 海外电影 >> 芭芭雅嘎:林中恶魔[中文字幕].Baba.Yaga.Terror.of.the.Dark.Forest.2020.BluRay.1080p.DTS-HDMA5.1.x265.10bit-DreamHD >> 正文

芭芭雅嘎:林中恶魔[中文字幕].Baba.Yaga.Terror.of.the.Dark.Forest.2020.BluRay.1080p.DTS-HDMA5.1.x265.10bit-DreamHD

2022年12月16日 21:19:34     电影发布:来源于网络     电影分类:海外电影     评论(0)    

◎标 题 芭芭雅嘎:林中恶魔

◎译 名 芭芭雅嘎 / 鬼保母(台) / Yaga: Koshmar temnogo lesa / Baba Yaga: Terror of the Dark Forest

◎片 名 Яга. Кошмар тёмного леса

◎年 代 2020

◎产 地 俄罗斯

◎类 别 恐怖

◎语 言 俄语

◎上映日期 2020-02-27(俄罗斯)

◎IMDb评分 4.7/10 (1609人评价)

◎IMDb链接 https://www.imdb.com/title/tt8006374/

◎豆瓣评分 5.2/10 (657人评价)

◎豆瓣链接 https://movie.douban.com/subject/30265418/

◎片 长 113分钟

◎导 演 Svyatoslav Podgaevskiy Svyatoslav Podgaevskiy

Nathalia Hencker Nathalia Hencker

◎编 剧 纳塔莉亚·杜波瓦亚 Natalya Dubovaya

伊凡·卡普托诺夫 Ivan Kapitonov

Svyatoslav Podgaevskiy Svyatoslav Podgaevskiy

◎演 员 奥列格·楚古诺夫 Oleg Chugunov

斯薇坦娜·乌斯蒂诺娃 Svetlana Ustinova

阿列克谢·罗津 Aleksey Rozin

玛丽安娜·斯皮瓦克 Maryana Spivak

玛尔塔·蒂莫菲娃 Marta Timofeeva

伊格·克里普诺夫 Igor Khripunov

尤莉娅·亚历山德罗娃 Yuliya Aleksandrova

Casey Mongillo

劳拉·波斯特 Laura Post

米歇尔·拉夫 Michelle Ruff

德尼斯·什韦多夫 Denis Shvedov

基思·西尔弗斯坦 Keith Silverstein

Kaiji Tang Kaiji Tang

◎标 签 恐怖 / 俄罗斯 / 奇幻 / 巫婆 / 俄罗斯电影 / 民间传说 / 传说 / 电影

◎简 介

这个年轻的家庭搬到市郊的一个新公寓,为他们刚出生的女儿雇了一个保姆。在得到信任后,晚上的保姆吓坏了婴儿和长子埃戈尔,后者正试图告诉父母保姆的奇怪行为,但他们不相信他。为了让父亲冷静,他安装了监控摄像头,但一切正常,没有发现任何可疑之处。一旦埃戈尔回家,他就找不到保姆或小妹妹。但家长们正处于一种奇怪的恍惚状态,不记得他们有一个女儿。

令人惊讶的是,她带着孩子,所有的玩具和东西都不见了,好像她以前从未来过这里。埃戈尔和他的朋友们去寻找,相信保姆实际上是一个古老的恶魔,俗称雅加。如果他们不能应付,他们的父母也会忘记他们。

  1. ##### MediaInfo ######

  2. General

  3. Unique ID : 147482167644602358402488394735976707407 (0x6EF408445A6E7F613D407C16E4D7F54F)

  4. Complete name : Baba.Yaga.Terror.of.the.Dark.Forest.2020.BluRay.1080p.DTS-HDMA5.1.x265.10bit-DreamHD.mkv

  5. Format : Matroska

  6. Format version : Version 4

  7. File size : 5.92 GiB

  8. Duration : 1 h 36 min

  9. Overall bit rate mode : Variable

  10. Overall bit rate : 8 766 kb/s

  11. Encoded date : UTC 2020-08-28 12:03:22

  12. Writing application : mkvmerge v48.0.0 ('Fortress Around Your Heart') 64-bit

  13. Writing library : libebml v1.4.0 + libmatroska v1.6.0


  14. Video

  15. ID : 1

  16. Format : HEVC

  17. Format/Info : High Efficiency Video Coding

  18. Format profile : Main [email protected]@Main

  19. Codec ID : V_MPEGH/ISO/HEVC

  20. Duration : 1 h 36 min

  21. Bit rate : 3 817 kb/s

  22. Width : 1 920 pixels

  23. Height : 804 pixels

  24. Display aspect ratio : 2.40:1

  25. Frame rate mode : Constant

  26. Frame rate : 23.976 (23976/1000) FPS

  27. Color space : YUV

  28. Chroma subsampling : 4:2:0

  29. Bit depth : 10 bits

  30. Bits/(Pixel*Frame) : 0.103

  31. Stream size : 2.58 GiB (44%)

  32. Writing library : x265 3.2+7-gb291a1c95+26:[Windows][MSVC 1916][64 bit] Yuuki 10bit

  33. Encoding settings : rc=crf / crf=13.0000 / qcomp=0.60 / qpstep=4 / stats-write=0 / stats-read=0 / no-lossless / no-cu-lossless / aq-mode=3 / aq-strength=1.00 / cbqpoffs=0 / crqpoffs=0 / ipratio=1.40 / pbratio=1.30 / psy-rd=2.00 / psy-rdoq=0.00 / deblock=0:0 / ref=6 / limit-refs=1 / no-limit-modes / bframes=8 / b-adapt=2 / bframe-bias=0 / b-pyramid / b-intra / weightp / weightb / min-keyint=23 / max-keyint=250 / rc-lookahead=24 / gop-lookahead=0 / scenecut=40 / radl=0 / max-cu-size=64 / min-cu-size=8 / me=2 / subme=7 / merange=48 / rdoq-level=0 / rd=4 / rdpenalty=0 / dynamic-rd=0.00 / no-rd-refine / ----- / cutree / sao / no-rect / no-amp / no-open-gop / wpp / no-pmode / no-pme / no-psnr / no-ssim / nr-intra=0 / nr-inter=0 / no-constrained-intra / no-strong-intra-smoothing / max-tu-size=32 / tu-inter-depth=1 / tu-intra-depth=1 / limit-tu=0 / qg-size=32 / qpmax=69 / qpmin=0 / ----- / cpuid=1111039 / frame-threads=5 / numa-pools=36,36 / log-level=2 / input-csp=1 / input-res=1920x804 / interlace=0 / level-idc=0 / high-tier=1 / uhd-bd=0 / no-allow-non-conformance / repeat-headers / no-aud / no-hrd / info / hash=0 / no-temporal-layers / lookahead-slices=5 / no-splice / no-intra-refresh / no-ssim-rd / signhide / no-tskip / max-merge=3 / temporal-mvp / no-hme / no-analyze-src-pics / no-sao-non-deblock / selective-sao=4 / early-skip / rskip / no-fast-intra / no-tskip-fast / no-splitrd-skip / zone-count=0 / no-strict-cbr / no-rc-grain / no-const-vbv / sar=0 / overscan=0 / videoformat=5 / range=0 / colorprim=2 / transfer=2 / colormatrix=2 / chromaloc=0 / display-window=0 / cll=0,0 / min-luma=0 / max-luma=1023 / log2-max-poc-lsb=8 / vui-timing-info / vui-hrd-info / slices=1 / no-opt-qp-pps / no-opt-ref-list-length-pps / no-multi-pass-opt-rps / scenecut-bias=0.05 / no-opt-cu-delta-qp / aq-motion / no-hdr / no-hdr-opt / no-dhdr10-opt / no-idr-recovery-sei / analysis-reuse-level=5 / scale-factor=0 / refine-intra=0 / refine-inter=0 / refine-mv=1 / refine-ctu-distortion=0 / no-limit-sao / ctu-info=0 / no-lowpass-dct / refine-analysis-type=0 / copy-pic=1 / max-ausize-factor=1.0 / no-dynamic-refine / no-single-sei / hevc-aq / no-svt / no-field / qp-adaptation-range=1.00

  34. Default : Yes

  35. Forced : No


  36. Audio #1

  37. ID : 2

  38. Format : DTS XLL

  39. Format/Info : Digital Theater Systems

  40. Commercial name : DTS-HD Master Audio

  41. Codec ID : A_DTS

  42. Duration : 1 h 36 min

  43. Bit rate mode : Variable

  44. Bit rate : 2 416 kb/s

  45. Channel(s) : 6 channels

  46. Channel layout : C L R Ls Rs LFE

  47. Sampling rate : 48.0 kHz

  48. Frame rate : 93.750 FPS (512 SPF)

  49. Bit depth : 24 bits

  50. Compression mode : Lossless

  51. Stream size : 1.63 GiB (28%)

  52. Default : Yes

  53. Forced : No


  54. Audio #2

  55. ID : 3

  56. Format : DTS XLL

  57. Format/Info : Digital Theater Systems

  58. Commercial name : DTS-HD Master Audio

  59. Codec ID : A_DTS

  60. Duration : 1 h 36 min

  61. Bit rate mode : Variable

  62. Bit rate : 2 450 kb/s

  63. Channel(s) : 6 channels

  64. Channel layout : C L R Ls Rs LFE

  65. Sampling rate : 48.0 kHz

  66. Frame rate : 93.750 FPS (512 SPF)

  67. Bit depth : 24 bits

  68. Compression mode : Lossless

  69. Stream size : 1.65 GiB (28%)

  70. Default : No

  71. Forced : No


  72. Text #1

  73. ID : 4

  74. Format : PGS

  75. Muxing mode : zlib

  76. Codec ID : S_HDMV/PGS

  77. Codec ID/Info : Picture based subtitle format used on BDs/HD-DVDs

  78. Duration : 1 h 32 min

  79. Bit rate : 12.4 kb/s

  80. Count of elements : 1533

  81. Stream size : 8.17 MiB (0%)

  82. Language : Chinese

  83. Default : Yes

  84. Forced : No


  85. Text #2

  86. ID : 5

  87. Format : PGS

  88. Muxing mode : zlib

  89. Codec ID : S_HDMV/PGS

  90. Codec ID/Info : Picture based subtitle format used on BDs/HD-DVDs

  91. Duration : 1 h 32 min

  92. Bit rate : 12.5 kb/s

  93. Count of elements : 1533

  94. Stream size : 8.27 MiB (0%)

  95. Language : Chinese

  96. Default : No

  97. Forced : No


  98. Text #3

  99. ID : 6

  100. Format : PGS

  101. Muxing mode : zlib

  102. Codec ID : S_HDMV/PGS

  103. Codec ID/Info : Picture based subtitle format used on BDs/HD-DVDs

  104. Duration : 1 h 32 min

  105. Bit rate : 21.6 kb/s

  106. Count of elements : 1534

  107. Stream size : 14.3 MiB (0%)

  108. Language : Chinese

  109. Default : No

  110. Forced : No


  111. Text #4

  112. ID : 7

  113. Format : PGS

  114. Muxing mode : zlib

  115. Codec ID : S_HDMV/PGS

  116. Codec ID/Info : Picture based subtitle format used on BDs/HD-DVDs

  117. Duration : 1 h 32 min

  118. Bit rate : 21.8 kb/s

  119. Count of elements : 1534

  120. Stream size : 14.4 MiB (0%)

  121. Language : Chinese

  122. Default : No

  123. Forced : No


  124. Text #5

  125. ID : 8

  126. Format : PGS

  127. Muxing mode : zlib

  128. Codec ID : S_HDMV/PGS

  129. Codec ID/Info : Picture based subtitle format used on BDs/HD-DVDs

  130. Duration : 1 h 32 min

  131. Bit rate : 12.3 kb/s

  132. Count of elements : 1408

  133. Stream size : 8.09 MiB (0%)

  134. Language : English

  135. Default : No

  136. Forced : No


  137. Text #6

  138. ID : 9

  139. Format : PGS

  140. Muxing mode : zlib

  141. Codec ID : S_HDMV/PGS

  142. Codec ID/Info : Picture based subtitle format used on BDs/HD-DVDs

  143. Duration : 1 h 32 min

  144. Bit rate : 12.4 kb/s

  145. Count of elements : 1408

  146. Stream size : 8.20 MiB (0%)

  147. Language : Chinese

  148. Default : No

  149. Forced : No


  150. Text #7

  151. ID : 10

  152. Format : PGS

  153. Muxing mode : zlib

  154. Codec ID : S_HDMV/PGS

  155. Codec ID/Info : Picture based subtitle format used on BDs/HD-DVDs

  156. Duration : 1 h 32 min

  157. Bit rate : 21.5 kb/s

  158. Count of elements : 1408

  159. Stream size : 14.2 MiB (0%)

  160. Language : Chinese

  161. Default : No

  162. Forced : No


  163. Text #8

  164. ID : 11

  165. Format : PGS

  166. Muxing mode : zlib

  167. Codec ID : S_HDMV/PGS

  168. Codec ID/Info : Picture based subtitle format used on BDs/HD-DVDs

  169. Duration : 1 h 32 min

  170. Bit rate : 21.7 kb/s

  171. Count of elements : 1408

  172. Stream size : 14.3 MiB (0%)

  173. Language : Chinese

  174. Default : No

  175. Forced : No


  176. Text #9

  177. ID : 12

  178. Format : PGS

  179. Muxing mode : zlib

  180. Codec ID : S_HDMV/PGS

  181. Codec ID/Info : Picture based subtitle format used on BDs/HD-DVDs

  182. Duration : 1 h 32 min

  183. Bit rate : 21.9 kb/s

  184. Count of elements : 2041

  185. Stream size : 14.6 MiB (0%)

  186. Language : English

  187. Default : No

  188. Forced : No


  189. Menu

  190. 00:00:00.000 : en:绗?01 绔?

  191. 00:08:50.363 : en:绗?02 绔?

  192. 00:16:29.614 : en:绗?03 绔?

  193. 00:23:31.952 : en:绗?04 绔?

  194. 00:31:06.823 : en:绗?05 绔?

  195. 00:39:26.781 : en:绗?06 绔?

  196. 00:49:05.109 : en:绗?07 绔?

  197. 00:56:06.822 : en:绗?08 绔?

  198. 01:03:21.881 : en:绗?09 绔?

  199. 01:13:25.192 : en:绗?10 绔?

  200. 01:21:45.609 : en:绗?11 绔?

  201. 01:33:01.534 : en:绗?12 绔?


复制代码




文件下载


除非特别注明,本文『芭芭雅嘎:林中恶魔[中文字幕].Baba.Yaga.Terror.of.the.Dark.Forest.2020.BluRay.1080p.DTS-HDMA5.1.x265.10bit-DreamHD』来源于互联网机器人自动抓取,非本站原创。 浮游电影网不对本文拥有版权,如有侵犯,请联系邮箱:fuyouu#yandex.com[#换成@]投诉。我们会在15个工作日内删除。 但烦请转载时请标明出处:“本文转载于『浮游电影网』,原文地址:https://www.fuyouu.com/22913.html

评论吧骚年!

发表你的见解   

昵称*

E-mail*(建议输入,以便收到博主回复的提示邮件)

验证码*

您可以使用eMule或eMule Mod(Windows)、aMule(Win、Linux、Mac)等软件下载eD2k链接。。
eMule收藏集(.emulecollection)文件是您选中的所有链接的列表文件。eMule可以直接下载它们。
按住SHIFT键选择可以选中多个选择框。
可用文件名和大小选择器来选择文件。
文件名选择器帮您根据文件名称或后缀来选择文件。不分大小写。
符号使用:
和:空格( )、+
不包含:-
或:|
转义:一对英文引号("");
匹配开头:^
匹配结尾:$
例如:
选中所有名称中包含有“eMule”或“0.49c”字眼,但不包含有“exe”字眼的:emule|0.49c -exe
选中所有名称的开头是“eMule”,结尾是“0.49c”的:^emule 0.49c$
选中所有名称中带有“eMule 0.49c”的(必须是“eMule 0.49c”,中间没有别的字符,不能是“eMule fake 0.49c”),需要转义:"emule 0.49c"
大小选择器帮您根据文件大小选择文件。