当前位置: 首页 >> 日韩电影 >> 白头山[中文字幕].Ashfall.2019.BluRay.1080p.TrueHD5.1.x265.10bit-DreamHD 9.00GB >> 正文

白头山[中文字幕].Ashfall.2019.BluRay.1080p.TrueHD5.1.x265.10bit-DreamHD 9.00GB

2022年12月16日 21:18:54     电影发布:来源于网络     电影分类:日韩电影     评论(0)    

◎标 题 白头山

◎译 名 白头山:火山浩劫(港) / 白头山:半岛浩劫(台) / 长白山 / Ashfall

◎片 名 백두산

◎年 代 2019

◎产 地 韩国

◎类 别 动作 / 灾难

◎语 言 韩语 / 英语 / 汉语普通话

◎上映日期 2019-12-19(韩国)

◎IMDb评分 6.2/10 (4191人评价)

◎IMDb链接 https://www.imdb.com/title/tt11285908/

◎豆瓣评分 6.5/10 (35235人评价)

◎豆瓣链接 https://movie.douban.com/subject/30200087/

◎片 长 128分钟

◎导 演 李海俊 Hae-jun Lee

金丙书 Byung-seo Kim

◎编 剧 李海俊 Hae-jun Lee

林俊亨 Chun-hyeong Lim

◎演 员 李秉宪 Byung-hun Lee

河正宇 Jung-woo Ha

马东锡 Don Lee

全慧珍 Hye-jin Jeon

裴秀智 Suzy Bae

韩长民 Chang-min Han

朴智宏 Ji-hong Park

张在熙 Jang Jae-hee

金宰澈 Jae-cheol Kim

韩成天 Han Sung-chun

全度妍 Do-yeon Jeon

丹尼尔·乔伊·奥尔布赖特 Daniel Joey Albright

林炯局 Hyeong-gook Im

金诗雅 Si-ah Kim

金容华 Yong-hwa Kim

方俊锡 Jun-seok Bang

崔太永 Tae-young Choi

权泰浩 Tae-ho Kwon

◎标 签 灾难 / 韩国 / 河正宇 / 韩国电影 / 马东锡 / 李秉宪 / 动作 / 2019

◎简 介

李秉宪、河正宇、马东锡确认参演新片[长白山](백두산,暂译),目前正在调整影片细节问题,该片将由李海淮([金氏漂流记])、金丙书执导。影片讲述长白山火山爆发在即,各方人们抵御灾害的故事。李秉宪饰演阻止火山爆发的北韩人员,河正宇则化身南韩要员,和李秉宪角色共同合作抗争。马东锡饰演一名科学家。据悉影片将投入约200亿韩元,将在明年初开拍。

  1. ##### MediaInfo ######

  2. General

  3. Unique ID : 117520857055144540561293464241335963586 (0x5869B19ADCA743DFF4CD6BD046C00FC2)

  4. Complete name : Ashfall.2019.BluRay.1080p.TrueHD5.1.x265.10bit-DreamHD.mkv

  5. Format : Matroska

  6. Format version : Version 4

  7. File size : 9.00 GiB

  8. Duration : 2 h 8 min

  9. Overall bit rate mode : Variable

  10. Overall bit rate : 10.0 Mb/s

  11. Encoded date : UTC 2020-05-17 12:21:20

  12. Writing application : mkvmerge v41.0.0 ('Smarra') 64-bit

  13. Writing library : libebml v1.3.9 + libmatroska v1.5.2


  14. Video

  15. ID : 1

  16. Format : HEVC

  17. Format/Info : High Efficiency Video Coding

  18. Format profile : Main [email protected]@Main

  19. Codec ID : V_MPEGH/ISO/HEVC

  20. Duration : 2 h 8 min

  21. Bit rate : 5 446 kb/s

  22. Width : 1 920 pixels

  23. Height : 804 pixels

  24. Display aspect ratio : 2.40:1

  25. Frame rate mode : Constant

  26. Frame rate : 23.976 (23976/1000) FPS

  27. Color space : YUV

  28. Chroma subsampling : 4:2:0

  29. Bit depth : 10 bits

  30. Bits/(Pixel*Frame) : 0.147

  31. Stream size : 4.88 GiB (54%)

  32. Writing library : x265 3.2+7-gb291a1c95+26:[Windows][MSVC 1916][64 bit] Yuuki 10bit

  33. Encoding settings : rc=crf / crf=16.0000 / qcomp=0.60 / qpstep=4 / stats-write=0 / stats-read=0 / no-lossless / no-cu-lossless / aq-mode=3 / aq-strength=1.00 / cbqpoffs=0 / crqpoffs=0 / ipratio=1.40 / pbratio=1.30 / psy-rd=2.00 / psy-rdoq=0.00 / deblock=0:0 / ref=6 / limit-refs=1 / no-limit-modes / bframes=8 / b-adapt=2 / bframe-bias=0 / b-pyramid / b-intra / weightp / weightb / min-keyint=23 / max-keyint=250 / rc-lookahead=24 / gop-lookahead=0 / scenecut=40 / radl=0 / max-cu-size=64 / min-cu-size=8 / me=2 / subme=7 / merange=48 / rdoq-level=0 / rd=4 / rdpenalty=0 / dynamic-rd=0.00 / no-rd-refine / ----- / cutree / sao / no-rect / no-amp / no-open-gop / wpp / no-pmode / no-pme / no-psnr / no-ssim / nr-intra=0 / nr-inter=0 / no-constrained-intra / no-strong-intra-smoothing / max-tu-size=32 / tu-inter-depth=1 / tu-intra-depth=1 / limit-tu=0 / qg-size=32 / qpmax=69 / qpmin=0 / ----- / cpuid=1111039 / frame-threads=5 / numa-pools=36,36 / log-level=2 / input-csp=1 / input-res=1920x804 / interlace=0 / level-idc=0 / high-tier=1 / uhd-bd=0 / no-allow-non-conformance / repeat-headers / no-aud / no-hrd / info / hash=0 / no-temporal-layers / lookahead-slices=5 / no-splice / no-intra-refresh / no-ssim-rd / signhide / no-tskip / max-merge=3 / temporal-mvp / no-hme / no-analyze-src-pics / no-sao-non-deblock / selective-sao=4 / early-skip / rskip / no-fast-intra / no-tskip-fast / no-splitrd-skip / zone-count=0 / no-strict-cbr / no-rc-grain / no-const-vbv / sar=0 / overscan=0 / videoformat=5 / range=0 / colorprim=2 / transfer=2 / colormatrix=2 / chromaloc=0 / display-window=0 / cll=0,0 / min-luma=0 / max-luma=1023 / log2-max-poc-lsb=8 / vui-timing-info / vui-hrd-info / slices=1 / no-opt-qp-pps / no-opt-ref-list-length-pps / no-multi-pass-opt-rps / scenecut-bias=0.05 / no-opt-cu-delta-qp / aq-motion / no-hdr / no-hdr-opt / no-dhdr10-opt / no-idr-recovery-sei / analysis-reuse-level=5 / scale-factor=0 / refine-intra=0 / refine-inter=0 / refine-mv=1 / refine-ctu-distortion=0 / no-limit-sao / ctu-info=0 / no-lowpass-dct / refine-analysis-type=0 / copy-pic=1 / max-ausize-factor=1.0 / no-dynamic-refine / no-single-sei / no-hevc-aq / no-svt / no-field / qp-adaptation-range=1.00

  34. Default : Yes

  35. Forced : No


  36. Audio #1

  37. ID : 2

  38. Format : MLP FBA

  39. Format/Info : Meridian Lossless Packing FBA

  40. Commercial name : Dolby TrueHD

  41. Codec ID : A_TRUEHD

  42. Duration : 2 h 8 min

  43. Bit rate mode : Variable

  44. Bit rate : 2 221 kb/s

  45. Maximum bit rate : 3 852 kb/s

  46. Channel(s) : 6 channels

  47. Channel layout : L R C LFE Ls Rs

  48. Sampling rate : 96.0 kHz

  49. Frame rate : 1 200.000 FPS (80 SPF)

  50. Compression mode : Lossless

  51. Stream size : 1.99 GiB (22%)

  52. Default : Yes

  53. Forced : No


  54. Audio #2

  55. ID : 3

  56. Format : MLP FBA

  57. Format/Info : Meridian Lossless Packing FBA

  58. Commercial name : Dolby TrueHD

  59. Codec ID : A_TRUEHD

  60. Duration : 2 h 8 min

  61. Bit rate mode : Variable

  62. Bit rate : 2 223 kb/s

  63. Maximum bit rate : 4 026 kb/s

  64. Channel(s) : 6 channels

  65. Channel layout : L R C LFE Ls Rs

  66. Sampling rate : 96.0 kHz

  67. Frame rate : 1 200.000 FPS (80 SPF)

  68. Compression mode : Lossless

  69. Stream size : 1.99 GiB (22%)

  70. Default : No

  71. Forced : No


  72. Text #1

  73. ID : 4

  74. Format : PGS

  75. Muxing mode : zlib

  76. Codec ID : S_HDMV/PGS

  77. Codec ID/Info : Picture based subtitle format used on BDs/HD-DVDs

  78. Duration : 2 h 3 min

  79. Bit rate : 30.5 kb/s

  80. Count of elements : 3130

  81. Stream size : 26.8 MiB (0%)

  82. Language : Chinese

  83. Default : Yes

  84. Forced : No


  85. Text #2

  86. ID : 5

  87. Format : PGS

  88. Muxing mode : zlib

  89. Codec ID : S_HDMV/PGS

  90. Codec ID/Info : Picture based subtitle format used on BDs/HD-DVDs

  91. Duration : 2 h 3 min

  92. Bit rate : 35.9 kb/s

  93. Count of elements : 2933

  94. Stream size : 31.7 MiB (0%)

  95. Language : English

  96. Default : No

  97. Forced : No


  98. Menu

  99. 00:00:00.000 : en:绗?01 绔?

  100. 00:08:41.438 : en:绗?02 绔?

  101. 00:20:37.111 : en:绗?03 绔?

  102. 00:32:47.465 : en:绗?04 绔?

  103. 00:43:46.082 : en:绗?05 绔?

  104. 00:50:37.368 : en:绗?06 绔?

  105. 01:04:59.354 : en:绗?07 绔?

  106. 01:14:34.345 : en:绗?08 绔?

  107. 01:26:07.662 : en:绗?09 绔?

  108. 01:35:08.828 : en:绗?10 绔?

  109. 01:48:06.980 : en:绗?11 绔?

  110. 01:56:38.700 : en:绗?12 绔?


复制代码




文件下载


除非特别注明,本文『白头山[中文字幕].Ashfall.2019.BluRay.1080p.TrueHD5.1.x265.10bit-DreamHD 9.00GB』来源于互联网机器人自动抓取,非本站原创。 浮游电影网不对本文拥有版权,如有侵犯,请联系邮箱:fuyouu#yandex.com[#换成@]投诉。我们会在15个工作日内删除。 但烦请转载时请标明出处:“本文转载于『浮游电影网』,原文地址:https://www.fuyouu.com/22912.html

评论吧骚年!

发表你的见解   

昵称*

E-mail*(建议输入,以便收到博主回复的提示邮件)

验证码*

您可以使用eMule或eMule Mod(Windows)、aMule(Win、Linux、Mac)等软件下载eD2k链接。。
eMule收藏集(.emulecollection)文件是您选中的所有链接的列表文件。eMule可以直接下载它们。
按住SHIFT键选择可以选中多个选择框。
可用文件名和大小选择器来选择文件。
文件名选择器帮您根据文件名称或后缀来选择文件。不分大小写。
符号使用:
和:空格( )、+
不包含:-
或:|
转义:一对英文引号("");
匹配开头:^
匹配结尾:$
例如:
选中所有名称中包含有“eMule”或“0.49c”字眼,但不包含有“exe”字眼的:emule|0.49c -exe
选中所有名称的开头是“eMule”,结尾是“0.49c”的:^emule 0.49c$
选中所有名称中带有“eMule 0.49c”的(必须是“eMule 0.49c”,中间没有别的字符,不能是“eMule fake 0.49c”),需要转义:"emule 0.49c"
大小选择器帮您根据文件大小选择文件。