当前位置: 首页 >> 欧美电影 >> KIMI[杜比视界版本][简繁英字幕].Kimi.2022.2160p.WEB-DL.DDP5.1.DoVi.x265-MOMOWEB 11.14GB >> 正文

KIMI[杜比视界版本][简繁英字幕].Kimi.2022.2160p.WEB-DL.DDP5.1.DoVi.x265-MOMOWEB 11.14GB

2022年12月15日 11:02:04     电影发布:来源于网络     电影分类:欧美电影     评论(0)    

◎标 题 KIMI

◎译 名 冷酷不够热 / 冷感酷女孩(港) / 不够热的冷酷感 / Kimi

◎年 代 2022

◎产 地 美国

◎类 别 剧情 / 惊悚 / 犯罪

◎语 言 英语

◎上映日期 2022-02-10(美国网络)

◎IMDb评分 5.9/10 (70人评价)

◎IMDb链接 https://www.imdb.com/title/tt14128670/

◎豆瓣链接 https://movie.douban.com/subject/35377057/

◎片 长 149分钟

◎导 演 史蒂文·索德伯格 Steven Soderbergh

◎编 剧 大卫·凯普 David Koepp

◎演 员 佐伊·克罗维兹 Zoë Kravitz

丽塔·威尔逊 Rita Wilson

戴文·雷特瑞 Devin Ratray

埃丽卡·克里斯滕森 Erika Christensen

茵地亚·德·比尤福特 India de Beaufort

罗宾·吉文斯 Robin Givens

杰米·卡米尔 Jaime Camil

贾克波·瓦格斯 Jacob Vargas

查尔斯·哈尔福德 Charles Halford

凯勒布·埃默里 Caleb Emery

拜伦·鲍尔斯 Byron Bowers

艾利克斯·多布兰口 Alex Dobrenko

爱德华多·莱斯卡诺 Eduardo Lezcano

凯尔·斯托尔茨 Kyle Stoltz

艾伦·米罗伊尼克 Ellen Mirojnick

◎简 介

#好莱坞影讯# 史蒂文·索德伯格下一部导演作品浮出水面,其将执导新片[冷酷不够热](KIMI),佐伊·克罗维兹领衔主演,该片也将在HBO Max首映。影片剧本由大卫·凯普撰写,讲述了一位有人群心理障碍的技术工作者,在普通数据流审阅过程中发现了暴力犯罪的记录证据,并尝试在其公司的指挥系统中进行报告。面对强大阻力和官僚主义,她意识到为了参与其中,她将不得不做她最担心的事情——离开她的公寓。

  1. ##### MediaInfo ######

  2. General

  3. Unique ID : 51622192104282242483132487364949080013 (0x26D61293160641080D85D33D53F077CD)

  4. Complete name : Kimi.2022.2160p.WEB-DL.DDP5.1.DoVi.x265-MOMOWEB.mkv

  5. Format : Matroska

  6. Format version : Version 4

  7. File size : 11.1 GiB

  8. Duration : 1 h 29 min

  9. Overall bit rate : 17.9 Mb/s

  10. Movie name : Kimi.2022.2160p.WEB-DL.DDP5.1.DoVi.x265-PTerWEB

  11. Encoded date : UTC 2022-12-14 07:12:03

  12. Writing application : mkvmerge v72.0.0 ('Minuano (Six-eight)') 64-bit

  13. Writing library : libebml v1.4.4 + libmatroska v1.7.1


  14. Video

  15. ID : 1

  16. Format : HEVC

  17. Format/Info : High Efficiency Video Coding

  18. Format profile : Main [email protected]@Main

  19. Codec ID : V_MPEGH/ISO/HEVC

  20. Duration : 1 h 29 min

  21. Bit rate : 17.6 Mb/s

  22. Width : 3 840 pixels

  23. Height : 2 160 pixels

  24. Display aspect ratio : 16:9

  25. Frame rate mode : Constant

  26. Frame rate : 23.976 (24000/1001) FPS

  27. Color space : YUV

  28. Chroma subsampling : 4:2:0

  29. Bit depth : 10 bits

  30. Bits/(Pixel*Frame) : 0.089

  31. Stream size : 11.0 GiB (99%)

  32. Writing library : x265 3.4hy:[Linux][GCC 7.5.0][64 bit] 10bit

  33. Encoding settings : cpuid=1111039 / frame-threads=6 / no-wpp / no-pmode / no-pme / no-psnr / no-ssim / log-level=2 / input-csp=1 / input-res=3840x2160 / interlace=0 / total-frames=0 / level-idc=0 / high-tier=1 / uhd-bd=0 / ref=4 / no-allow-non-conformance / repeat-headers / annexb / aud / hrd / info / hash=0 / no-temporal-layers / no-open-gop / min-keyint=96 / keyint=96 / gop-lookahead=0 / bframes=4 / b-adapt=2 / b-pyramid / bframe-bias=0 / rc-lookahead=25 / lookahead-slices=4 / scenecut=40 / hist-scenecut=0 / radl=0 / no-splice / no-intra-refresh / ctu=64 / min-cu-size=8 / rect / no-amp / max-tu-size=32 / tu-inter-depth=1 / tu-intra-depth=1 / limit-tu=0 / rdoq-level=2 / dynamic-rd=0.00 / no-ssim-rd / signhide / no-tskip / nr-intra=0 / nr-inter=0 / no-constrained-intra / strong-intra-smoothing / max-merge=3 / limit-refs=3 / limit-modes / me=3 / subme=3 / merange=57 / temporal-mvp / no-frame-dup / no-hme / weightp / no-weightb / no-analyze-src-pics / deblock=0:0 / sao / no-sao-non-deblock / rd=4 / selective-sao=4 / no-early-skip / rskip / no-fast-intra / no-tskip-fast / no-cu-lossless / no-b-intra / no-splitrd-skip / rdpenalty=0 / psy-rd=2.00 / psy-rdoq=1.00 / no-rd-refine / no-lossless / cbqpoffs=0 / crqpoffs=3 / rc=abr / bitrate=18000 / qcomp=0.60 / qpstep=4 / stats-write=0 / stats-read=2 / cplxblur=20.0 / qblur=0.5 / vbv-maxrate=24500 / vbv-bufsize=24500 / vbv-init=0.6 / vbv-end=0.6 / vbv-end-fr-adj=0.0 / ipratio=1.40 / pbratio=1.30 / aq-mode=2 / aq-strength=1.00 / cutree / zone-count=0 / no-strict-cbr / qg-size=32 / no-rc-grain / qpmax=69 / qpmin=0 / no-const-vbv / sar=1 / overscan=0 / videoformat=5 / range=1 / colorprim=2 / transfer=2 / colormatrix=2 / chromaloc=0 / display-window=0 / cll=0,0 / min-luma=0 / max-luma=1023 / log2-max-poc-lsb=8 / vui-timing-info / vui-hrd-info / no-concatenation / slices=1 / no-opt-qp-pps / no-opt-ref-list-length-pps / no-multi-pass-opt-rps / scenecut-bias=0.05 / hist-threshold=0.01 / no-opt-cu-delta-qp / no-aq-motion / no-hdr10 / no-hdr10-opt / no-dhdr10-opt / no-idr-recovery-sei / analysis-reuse-level=0 / analysis-save-reuse-level=0 / analysis-load-reuse-level=0 / scale-factor=0 / refine-intra=0 / refine-inter=0 / refine-mv=1 / refine-ctu-distortion=0 / no-limit-sao / ctu-info=0 / no-lowpass-dct / refine-analysis-type=0 / copy-pic=1 / max-ausize-factor=1.0 / no-dynamic-refine / no-single-sei / no-hevc-aq / no-svt / no-field / qp-adaptation-range=1.00 / no-scenecut-aware-qpconformance-window-offsets / right=0 / bottom=0 / decoder-max-rate=0

  34. Default : Yes

  35. Forced : No

  36. Color range : Full


  37. Audio

  38. ID : 2

  39. Format : E-AC-3

  40. Format/Info : Enhanced AC-3

  41. Commercial name : Dolby Digital Plus

  42. Codec ID : A_EAC3

  43. Duration : 1 h 29 min

  44. Bit rate mode : Constant

  45. Bit rate : 256 kb/s

  46. Channel(s) : 6 channels

  47. Channel layout : L R C LFE Ls Rs

  48. Sampling rate : 48.0 kHz

  49. Frame rate : 31.250 FPS (1536 SPF)

  50. Compression mode : Lossy

  51. Delay relative to video : -83 ms

  52. Stream size : 163 MiB (1%)

  53. Language : English

  54. Service kind : Complete Main

  55. Default : Yes

  56. Forced : No


  57. Text #1

  58. ID : 3

  59. Format : UTF-8

  60. Codec ID : S_TEXT/UTF8

  61. Codec ID/Info : UTF-8 Plain Text

  62. Duration : 1 h 28 min

  63. Bit rate : 58 b/s

  64. Count of elements : 780

  65. Stream size : 38.2 KiB (0%)

  66. Language : Bulgarian

  67. Default : No

  68. Forced : No


  69. Text #2

  70. ID : 4

  71. Format : UTF-8

  72. Codec ID : S_TEXT/UTF8

  73. Codec ID/Info : UTF-8 Plain Text

  74. Duration : 1 h 28 min

  75. Bit rate : 32 b/s

  76. Count of elements : 768

  77. Stream size : 21.3 KiB (0%)

  78. Language : Czech

  79. Default : No

  80. Forced : No


  81. Text #3

  82. ID : 5

  83. Format : UTF-8

  84. Codec ID : S_TEXT/UTF8

  85. Codec ID/Info : UTF-8 Plain Text

  86. Duration : 1 h 28 min

  87. Bit rate : 35 b/s

  88. Count of elements : 767

  89. Stream size : 22.9 KiB (0%)

  90. Language : Danish

  91. Default : No

  92. Forced : No


  93. Text #4

  94. ID : 6

  95. Format : UTF-8

  96. Codec ID : S_TEXT/UTF8

  97. Codec ID/Info : UTF-8 Plain Text

  98. Duration : 1 h 26 min

  99. Bit rate : 49 b/s

  100. Count of elements : 1029

  101. Stream size : 31.5 KiB (0%)

  102. Title : SDH

  103. Language : English

  104. Default : No

  105. Forced : No


  106. Text #5

  107. ID : 7

  108. Format : UTF-8

  109. Codec ID : S_TEXT/UTF8

  110. Codec ID/Info : UTF-8 Plain Text

  111. Duration : 1 h 26 min

  112. Bit rate : 48 b/s

  113. Count of elements : 1000

  114. Stream size : 30.3 KiB (0%)

  115. Title : Latinoamérica SDH

  116. Language : Spanish

  117. Default : No

  118. Forced : No


  119. Text #6

  120. ID : 8

  121. Format : UTF-8

  122. Codec ID : S_TEXT/UTF8

  123. Codec ID/Info : UTF-8 Plain Text

  124. Duration : 1 h 28 min

  125. Bit rate : 37 b/s

  126. Count of elements : 769

  127. Stream size : 24.5 KiB (0%)

  128. Title : Latinoamérica

  129. Language : Spanish

  130. Default : No

  131. Forced : No


  132. Text #7

  133. ID : 9

  134. Format : UTF-8

  135. Codec ID : S_TEXT/UTF8

  136. Codec ID/Info : UTF-8 Plain Text

  137. Duration : 1 h 25 min

  138. Bit rate : 34 b/s

  139. Count of elements : 713

  140. Stream size : 21.9 KiB (0%)

  141. Title : Espa?a

  142. Language : Spanish

  143. Default : No

  144. Forced : No


  145. Text #8

  146. ID : 10

  147. Format : UTF-8

  148. Codec ID : S_TEXT/UTF8

  149. Codec ID/Info : UTF-8 Plain Text

  150. Duration : 1 h 28 min

  151. Bit rate : 35 b/s

  152. Count of elements : 771

  153. Stream size : 22.9 KiB (0%)

  154. Language : Estonian

  155. Default : No

  156. Forced : No


  157. Text #9

  158. ID : 11

  159. Format : UTF-8

  160. Codec ID : S_TEXT/UTF8

  161. Codec ID/Info : UTF-8 Plain Text

  162. Duration : 1 h 28 min

  163. Bit rate : 31 b/s

  164. Count of elements : 756

  165. Stream size : 20.7 KiB (0%)

  166. Language : Finnish

  167. Default : No

  168. Forced : No


  169. Text #10

  170. ID : 12

  171. Format : UTF-8

  172. Codec ID : S_TEXT/UTF8

  173. Codec ID/Info : UTF-8 Plain Text

  174. Duration : 1 h 28 min

  175. Bit rate : 33 b/s

  176. Count of elements : 771

  177. Stream size : 21.9 KiB (0%)

  178. Language : Croatian

  179. Default : No

  180. Forced : No


  181. Text #11

  182. ID : 13

  183. Format : UTF-8

  184. Codec ID : S_TEXT/UTF8

  185. Codec ID/Info : UTF-8 Plain Text

  186. Duration : 1 h 28 min

  187. Bit rate : 34 b/s

  188. Count of elements : 768

  189. Stream size : 22.6 KiB (0%)

  190. Language : Hungarian

  191. Default : No

  192. Forced : No


  193. Text #12

  194. ID : 14

  195. Format : UTF-8

  196. Codec ID : S_TEXT/UTF8

  197. Codec ID/Info : UTF-8 Plain Text

  198. Duration : 1 h 28 min

  199. Bit rate : 38 b/s

  200. Count of elements : 771

  201. Stream size : 24.8 KiB (0%)

  202. Language : Icelandic

  203. Default : No

  204. Forced : No


  205. Text #13

  206. ID : 15

  207. Format : UTF-8

  208. Codec ID : S_TEXT/UTF8

  209. Codec ID/Info : UTF-8 Plain Text

  210. Duration : 1 h 28 min

  211. Bit rate : 36 b/s

  212. Count of elements : 771

  213. Stream size : 23.8 KiB (0%)

  214. Language : Lithuanian

  215. Default : No

  216. Forced : No


  217. Text #14

  218. ID : 16

  219. Format : UTF-8

  220. Codec ID : S_TEXT/UTF8

  221. Codec ID/Info : UTF-8 Plain Text

  222. Duration : 1 h 28 min

  223. Bit rate : 36 b/s

  224. Count of elements : 778

  225. Stream size : 23.5 KiB (0%)

  226. Language : Latvian

  227. Default : No

  228. Forced : No


  229. Text #15

  230. ID : 17

  231. Format : UTF-8

  232. Codec ID : S_TEXT/UTF8

  233. Codec ID/Info : UTF-8 Plain Text

  234. Duration : 1 h 25 min

  235. Bit rate : 62 b/s

  236. Count of elements : 778

  237. Stream size : 39.4 KiB (0%)

  238. Language : Macedonian

  239. Default : No

  240. Forced : No


  241. Text #16

  242. ID : 18

  243. Format : UTF-8

  244. Codec ID : S_TEXT/UTF8

  245. Codec ID/Info : UTF-8 Plain Text

  246. Duration : 1 h 28 min

  247. Bit rate : 32 b/s

  248. Count of elements : 667

  249. Stream size : 20.8 KiB (0%)

  250. Language : Dutch

  251. Default : No

  252. Forced : No


  253. Text #17

  254. ID : 19

  255. Format : UTF-8

  256. Codec ID : S_TEXT/UTF8

  257. Codec ID/Info : UTF-8 Plain Text

  258. Duration : 1 h 28 min

  259. Bit rate : 35 b/s

  260. Count of elements : 770

  261. Stream size : 23.0 KiB (0%)

  262. Language : Norwegian

  263. Default : No

  264. Forced : No


  265. Text #18

  266. ID : 20

  267. Format : UTF-8

  268. Codec ID : S_TEXT/UTF8

  269. Codec ID/Info : UTF-8 Plain Text

  270. Duration : 1 h 28 min

  271. Bit rate : 31 b/s

  272. Count of elements : 749

  273. Stream size : 20.3 KiB (0%)

  274. Language : Polish

  275. Default : No

  276. Forced : No


  277. Text #19

  278. ID : 21

  279. Format : UTF-8

  280. Codec ID : S_TEXT/UTF8

  281. Codec ID/Info : UTF-8 Plain Text

  282. Duration : 1 h 28 min

  283. Bit rate : 36 b/s

  284. Count of elements : 773

  285. Stream size : 23.5 KiB (0%)

  286. Title : Brasil

  287. Language : Portuguese

  288. Default : No

  289. Forced : No


  290. Text #20

  291. ID : 22

  292. Format : UTF-8

  293. Codec ID : S_TEXT/UTF8

  294. Codec ID/Info : UTF-8 Plain Text

  295. Duration : 1 h 28 min

  296. Bit rate : 37 b/s

  297. Count of elements : 771

  298. Stream size : 24.0 KiB (0%)

  299. Title : Portugal

  300. Language : Portuguese

  301. Default : No

  302. Forced : No


  303. Text #21

  304. ID : 23

  305. Format : UTF-8

  306. Codec ID : S_TEXT/UTF8

  307. Codec ID/Info : UTF-8 Plain Text

  308. Duration : 1 h 28 min

  309. Bit rate : 35 b/s

  310. Count of elements : 769

  311. Stream size : 22.8 KiB (0%)

  312. Language : Romanian

  313. Default : No

  314. Forced : No


  315. Text #22

  316. ID : 24

  317. Format : UTF-8

  318. Codec ID : S_TEXT/UTF8

  319. Codec ID/Info : UTF-8 Plain Text

  320. Duration : 1 h 28 min

  321. Bit rate : 38 b/s

  322. Count of elements : 767

  323. Stream size : 24.8 KiB (0%)

  324. Language : Slovak

  325. Default : No

  326. Forced : No


  327. Text #23

  328. ID : 25

  329. Format : UTF-8

  330. Codec ID : S_TEXT/UTF8

  331. Codec ID/Info : UTF-8 Plain Text

  332. Duration : 1 h 28 min

  333. Bit rate : 32 b/s

  334. Count of elements : 773

  335. Stream size : 21.0 KiB (0%)

  336. Language : Slovenian

  337. Default : No

  338. Forced : No


  339. Text #24

  340. ID : 26

  341. Format : UTF-8

  342. Codec ID : S_TEXT/UTF8

  343. Codec ID/Info : UTF-8 Plain Text

  344. Duration : 1 h 28 min

  345. Bit rate : 35 b/s

  346. Count of elements : 772

  347. Stream size : 23.0 KiB (0%)

  348. Language : Serbian

  349. Default : No

  350. Forced : No


  351. Text #25

  352. ID : 27

  353. Format : UTF-8

  354. Codec ID : S_TEXT/UTF8

  355. Codec ID/Info : UTF-8 Plain Text

  356. Duration : 1 h 28 min

  357. Bit rate : 33 b/s

  358. Count of elements : 765

  359. Stream size : 21.9 KiB (0%)

  360. Language : Swedish

  361. Default : No

  362. Forced : No


  363. Text #26

  364. ID : 28

  365. Format : UTF-8

  366. Codec ID : S_TEXT/UTF8

  367. Codec ID/Info : UTF-8 Plain Text

  368. Duration : 1 h 25 min

  369. Bit rate : 38 b/s

  370. Count of elements : 1064

  371. Stream size : 24.0 KiB (0%)

  372. Title : 中文(简体)

  373. Language : Chinese

  374. Default : No

  375. Forced : No


  376. Text #27

  377. ID : 29

  378. Format : UTF-8

  379. Codec ID : S_TEXT/UTF8

  380. Codec ID/Info : UTF-8 Plain Text

  381. Duration : 1 h 28 min

  382. Bit rate : 37 b/s

  383. Count of elements : 940

  384. Stream size : 24.4 KiB (0%)

  385. Title : 中文(繁體)

  386. Language : Chinese

  387. Default : No

  388. Forced : No


复制代码













文件下载


除非特别注明,本文『KIMI[杜比视界版本][简繁英字幕].Kimi.2022.2160p.WEB-DL.DDP5.1.DoVi.x265-MOMOWEB 11.14GB』来源于互联网机器人自动抓取,非本站原创。 浮游电影网不对本文拥有版权,如有侵犯,请联系邮箱:fuyouu#yandex.com[#换成@]投诉。我们会在15个工作日内删除。 但烦请转载时请标明出处:“本文转载于『浮游电影网』,原文地址:https://www.fuyouu.com/22911.html

评论吧骚年!

发表你的见解   

昵称*

E-mail*(建议输入,以便收到博主回复的提示邮件)

验证码*

您可以使用eMule或eMule Mod(Windows)、aMule(Win、Linux、Mac)等软件下载eD2k链接。。
eMule收藏集(.emulecollection)文件是您选中的所有链接的列表文件。eMule可以直接下载它们。
按住SHIFT键选择可以选中多个选择框。
可用文件名和大小选择器来选择文件。
文件名选择器帮您根据文件名称或后缀来选择文件。不分大小写。
符号使用:
和:空格( )、+
不包含:-
或:|
转义:一对英文引号("");
匹配开头:^
匹配结尾:$
例如:
选中所有名称中包含有“eMule”或“0.49c”字眼,但不包含有“exe”字眼的:emule|0.49c -exe
选中所有名称的开头是“eMule”,结尾是“0.49c”的:^emule 0.49c$
选中所有名称中带有“eMule 0.49c”的(必须是“eMule 0.49c”,中间没有别的字符,不能是“eMule fake 0.49c”),需要转义:"emule 0.49c"
大小选择器帮您根据文件大小选择文件。