当前位置: 首页 >> 国产电影 >> 芙蓉镇[杜比视界版本][国语配音/中文字幕].Hibiscus.Town.1987.2160p.Dovi.HDR.UHD.BluRay.DD1.0.x265-10bit-BATHD 28.99GB >> 正文

芙蓉镇[杜比视界版本][国语配音/中文字幕].Hibiscus.Town.1987.2160p.Dovi.HDR.UHD.BluRay.DD1.0.x265-10bit-BATHD 28.99GB

2022年12月13日 21:37:16     电影发布:来源于网络     电影分类:国产电影     评论(0)    

◎标 题 芙蓉镇

◎译 名 Hibiscus Town

◎年 代 1987

◎产 地 中国大陆

◎类 别 剧情 / 爱情

◎语 言 汉语普通话

◎上映日期 1987-03-05(中国大陆上海首映)

◎IMDb评分 8.2/10 (1021人评价)

◎IMDb链接 https://www.imdb.com/title/tt0087301/

◎豆瓣评分 9.2/10 (115881人评价)

◎豆瓣链接 https://movie.douban.com/subject/1297880/

◎片 长 164 分钟

◎导 演 谢晋 Jin Xie

◎编 剧 阿城 A Cheng

谢晋 Jin Xie

陈敦德 Dunde Chen

古华 Hua Gu

◎演 员 刘晓庆 Xiaoqing Liu

姜文 Wen Jiang

郑在石 Zaishi Zheng

张光北 Guangbei Zhang

徐松子 Songzi Xu

祝士彬 Shibin Zhu

刘利年 Harrison Liu

姜友石 Youshi Jiang

麦文燕 Wenyan Mai

徐宁 Ning Xu

葛炎 Yan Ge

梅云熹 Yunxi Mei

卢俊福 Junfu Lu

周鼎文 Dingwen Zhou

徐国梁 Guoliang Xu

张元鼎 Yuanding Zhang

陈忠泽 Zhongze Chen

郑海江 Haijiang Zheng

林福增 Fuzeng Lin

金绮芬 Qifen Jin

张存忠 Cunzhong Zhang

沈克强 Keqiang Shen

洪美娟 Meijuan Hong

汤丽绚 Lixuan Tang

胡立德 Lide Hu

朱伟刚 Weigang Zhu

谢协鹏 Xiepeng Xie

◎简 介

本片分上下两集,讲述了位于湘、粤、桂三省交界处的芙蓉镇上,人称“芙蓉姐”的漂亮女人胡玉音(刘晓庆)在“四清运动”及“文化大革命”中的遭遇。

1963年,凭着热情周到的服务,胡玉音与丈夫桂桂(刘利年)经营的米豆腐摊子前渐渐成为早市上最热闹的一道风景,加上夫妻俩省吃俭用,手中积攒了一 笔数目可观的财富。镇党支书也是胡玉音干哥的黎满庚(张光北)、粮站主任谷燕山(郑在石)及乡邻们都为他们高兴。当他们盖好新房准备日子更上一层楼时,迎上“四清运动”,一直嫉妒胡玉音的原国营饮食店经理、今县商业局科长李国香(徐松子)与二流子王秋赦(祝士彬)联手,趁机将她定性为“反革命五类分子”中的“富农婆”,将之派去与原县文化馆馆长、今被人称作“秦癫子”的“右派”秦书田(姜文)一起清扫大街,桂桂身亡。运动中黎满庚昧着良心将胡玉音背叛,谷燕山则一直以老革命军人的标准诚实做人。

196...

  1. ##### MediaInfo ######

  2. General

  3. Unique ID : 93378965765607997909260823895292102206 (0x46402277663BD317CD1E48821605C63E)

  4. Complete name : Hibiscus.Town.1987.2160p.HDR.UHD.BluRay.DD1.0.x265-10bit-BATHD.mkv

  5. Format : Matroska

  6. Format version : Version 4

  7. File size : 29.0 GiB

  8. Duration : 2 h 44 min

  9. Overall bit rate : 25.3 Mb/s

  10. Movie name : Hibiscus Town 1987 2160p HDR UHD BluRay DD1.0 x265-10bit-HDS

  11. Encoded date : UTC 2022-12-12 13:37:51

  12. Writing application : mkvmerge v72.0.0 ('Minuano (Six-eight)') 64-bit

  13. Writing library : libebml v1.4.4 + libmatroska v1.7.1


  14. Video

  15. ID : 1

  16. Format : HEVC

  17. Format/Info : High Efficiency Video Coding

  18. Format profile : Main [email protected]@High

  19. HDR format : SMPTE ST 2086, HDR10 compatible

  20. Codec ID : V_MPEGH/ISO/HEVC

  21. Duration : 2 h 44 min

  22. Bit rate : 24.8 Mb/s

  23. Width : 3 840 pixels

  24. Height : 1 632 pixels

  25. Display aspect ratio : 2.35:1

  26. Frame rate mode : Constant

  27. Frame rate : 24.000 FPS

  28. Color space : YUV

  29. Chroma subsampling : 4:2:0

  30. Bit depth : 10 bits

  31. Bits/(Pixel*Frame) : 0.165

  32. Stream size : 28.4 GiB (98%)

  33. Title : @HDSky

  34. Writing library : x265 - H.265/HEVC codec

  35. Default : Yes

  36. Forced : No

  37. Color range : Limited

  38. Color primaries : BT.2020

  39. Transfer characteristics : PQ

  40. Matrix coefficients : BT.2020 non-constant

  41. Mastering display color primaries : BT.2020

  42. Mastering display luminance : min: 0.0001 cd/m2, max: 1000 cd/m2

  43. Maximum Content Light Level : 428 cd/m2

  44. Maximum Frame-Average Light Level : 210 cd/m2


  45. Audio

  46. ID : 2

  47. Format : AC-3

  48. Format/Info : Audio Coding 3

  49. Commercial name : Dolby Digital

  50. Codec ID : A_AC3

  51. Duration : 2 h 44 min

  52. Bit rate mode : Constant

  53. Bit rate : 448 kb/s

  54. Channel(s) : 1 channel

  55. Channel layout : C

  56. Sampling rate : 48.0 kHz

  57. Frame rate : 31.250 FPS (1536 SPF)

  58. Compression mode : Lossy

  59. Stream size : 526 MiB (2%)

  60. Title : Mandarin

  61. Language : Chinese

  62. Service kind : Complete Main

  63. Default : Yes

  64. Forced : No


  65. Text #1

  66. ID : 3

  67. Format : PGS

  68. Muxing mode : zlib

  69. Codec ID : S_HDMV/PGS

  70. Codec ID/Info : Picture based subtitle format used on BDs/HD-DVDs

  71. Duration : 2 h 42 min

  72. Bit rate : 13.8 kb/s

  73. Count of elements : 3115

  74. Stream size : 16.0 MiB (0%)

  75. Title : CHS

  76. Language : Chinese

  77. Default : Yes

  78. Forced : No


  79. Text #2

  80. ID : 4

  81. Format : PGS

  82. Muxing mode : zlib

  83. Codec ID : S_HDMV/PGS

  84. Codec ID/Info : Picture based subtitle format used on BDs/HD-DVDs

  85. Duration : 2 h 42 min

  86. Bit rate : 14.1 kb/s

  87. Count of elements : 3115

  88. Stream size : 16.4 MiB (0%)

  89. Title : CHT

  90. Language : Chinese

  91. Default : Yes

  92. Forced : No


  93. Text #3

  94. ID : 5

  95. Format : PGS

  96. Muxing mode : zlib

  97. Codec ID : S_HDMV/PGS

  98. Codec ID/Info : Picture based subtitle format used on BDs/HD-DVDs

  99. Duration : 2 h 42 min

  100. Bit rate : 13.8 kb/s

  101. Count of elements : 3115

  102. Stream size : 16.0 MiB (0%)

  103. Title : CHS

  104. Language : Chinese

  105. Default : Yes

  106. Forced : No


  107. Text #4

  108. ID : 6

  109. Format : PGS

  110. Muxing mode : zlib

  111. Codec ID : S_HDMV/PGS

  112. Codec ID/Info : Picture based subtitle format used on BDs/HD-DVDs

  113. Duration : 2 h 42 min

  114. Bit rate : 14.1 kb/s

  115. Count of elements : 3115

  116. Stream size : 16.4 MiB (0%)

  117. Title : CHT

  118. Language : Chinese

  119. Default : Yes

  120. Forced : No


  121. Menu

  122. 00:00:00.000 : en:第 01 章

  123. 00:11:31.208 : en:第 02 章

  124. 00:31:18.667 : en:第 03 章

  125. 00:48:45.542 : en:第 04 章

  126. 00:59:33.500 : en:第 05 章

  127. 01:14:00.292 : en:第 06 章

  128. 01:29:28.208 : en:第 07 章

  129. 01:44:15.125 : en:第 08 章

  130. 01:58:41.125 : en:第 09 章

  131. 02:15:19.292 : en:第 10 章

  132. 02:25:58.708 : en:第 11 章

  133. 02:35:08.458 : en:第 12 章


复制代码




文件下载


除非特别注明,本文『芙蓉镇[杜比视界版本][国语配音/中文字幕].Hibiscus.Town.1987.2160p.Dovi.HDR.UHD.BluRay.DD1.0.x265-10bit-BATHD 28.99GB』来源于互联网机器人自动抓取,非本站原创。 浮游电影网不对本文拥有版权,如有侵犯,请联系邮箱:fuyouu#yandex.com[#换成@]投诉。我们会在15个工作日内删除。 但烦请转载时请标明出处:“本文转载于『浮游电影网』,原文地址:https://www.fuyouu.com/22910.html

评论吧骚年!

发表你的见解   

昵称*

E-mail*(建议输入,以便收到博主回复的提示邮件)

验证码*

您可以使用eMule或eMule Mod(Windows)、aMule(Win、Linux、Mac)等软件下载eD2k链接。。
eMule收藏集(.emulecollection)文件是您选中的所有链接的列表文件。eMule可以直接下载它们。
按住SHIFT键选择可以选中多个选择框。
可用文件名和大小选择器来选择文件。
文件名选择器帮您根据文件名称或后缀来选择文件。不分大小写。
符号使用:
和:空格( )、+
不包含:-
或:|
转义:一对英文引号("");
匹配开头:^
匹配结尾:$
例如:
选中所有名称中包含有“eMule”或“0.49c”字眼,但不包含有“exe”字眼的:emule|0.49c -exe
选中所有名称的开头是“eMule”,结尾是“0.49c”的:^emule 0.49c$
选中所有名称中带有“eMule 0.49c”的(必须是“eMule 0.49c”,中间没有别的字符,不能是“eMule fake 0.49c”),需要转义:"emule 0.49c"
大小选择器帮您根据文件大小选择文件。