当前位置: 首页 >> 港台电影 >> 明日战记[60帧率版本][中文字幕/国粤语音轨].Warriors.of.Future.2022.2160p.WEB-DL.60fps.H265.10bit.DDP-TAGWEB 5.12GB >> 正文

明日战记[60帧率版本][中文字幕/国粤语音轨].Warriors.of.Future.2022.2160p.WEB-DL.60fps.H265.10bit.DDP-TAGWEB 5.12GB

2022年12月11日 20:06:26     电影发布:来源于网络     电影分类:港台电影     评论(0)    

◎标 题 明日战记

◎译 名 矛盾战争 / Warriors of Future

◎片 名 明日戰記

◎年 代 2022

◎产 地 中国香港 / 中国大陆

◎类 别 动作 / 科幻

◎语 言 汉语普通话 / 粤语

◎上映日期 2022-08-05(中国大陆) / 2022-08-25(中国香港)

◎IMDb评分 6.4/10 (554人评价)

◎IMDb链接 https://www.imdb.com/title/tt7375466/

◎豆瓣评分 6.4/10 (95202人评价)

◎豆瓣链接 https://movie.douban.com/subject/26353671/

◎片 长 99分钟

◎导 演 吴炫辉 Yuen Fai Ng

◎编 剧 刘浩良 Ho Leung Lau

麦天枢 Tin Shu Mak

◎演 员 古天乐 Louis Koo

刘青云 Sean Lau

刘嘉玲 Carina Lau

姜皓文 Philip Keung Ho-Man

谢君豪 Kwan-Ho Tse

吴倩 Qian Wu

万国鹏 Guopeng Wan

张家辉 Nick Cheung

刘浩良 Ho Leung Lau

麦天枢 Tin Shu Mak

程小夏 Xiaoxia Cheng

赫子铭 Lanpeng He

古天乐 Louis Koo

◎简 介

未来世界,地球因环境污染而千疮百孔,人类家园破败萧条。一颗陨石突然撞击地球,并带来杀伤力极强的外星生物,560万人将因此失去生命。人类命运岌岌可危,总指挥李升(张家辉 饰)派出以军人泰来(古天乐 饰)为首的精英部队前往执行改造计划,部队却突遭暴力攻击,只有泰来和通讯兵光仔(万国鹏 饰)幸存。军官谭冰(刘嘉玲 饰)坚持执行PlanB,指挥官郑重生(刘青云 饰)反对并找来旧友臭鼬(姜皓文 饰)前往支援。拯救家园刻不容缓,但在通讯员小绿(吴倩 饰)悄悄提醒下,泰来发现了一个足以毁天灭地的邪恶阴谋……

  1. ##### MediaInfo ######

  2. General

  3. Unique ID : 29428089435216097155374686406445154441 (0x1623A4D45527555E84EF5E033280C089)

  4. Complete name : Warriors.of.Future.2022.2160p.WEB-DL.60fps.H265.10bit.DDP-TAGWEB.mkv

  5. Format : Matroska

  6. Format version : Version 4

  7. File size : 5.12 GiB

  8. Duration : 1 h 38 min

  9. Overall bit rate : 7 454 kb/s

  10. Encoded date : UTC 2022-12-09 22:40:04

  11. Writing application : mkvmerge v62.0.0 ('Apollo') 64-bit

  12. Writing library : libebml v1.4.2 + libmatroska v1.6.4


  13. Video

  14. ID : 1

  15. Format : HEVC

  16. Format/Info : High Efficiency Video Coding

  17. Format profile : Main [email protected]@Main

  18. Codec ID : V_MPEGH/ISO/HEVC

  19. Duration : 1 h 38 min

  20. Bit rate : 6 558 kb/s

  21. Width : 3 840 pixels

  22. Height : 1 610 pixels

  23. Display aspect ratio : 2.40:1

  24. Frame rate mode : Constant

  25. Frame rate : 60.000 FPS

  26. Color space : YUV

  27. Chroma subsampling : 4:2:0

  28. Bit depth : 10 bits

  29. Bits/(Pixel*Frame) : 0.018

  30. Stream size : 4.50 GiB (88%)

  31. Default : Yes

  32. Forced : No

  33. Color range : Limited

  34. Color primaries : BT.709

  35. Transfer characteristics : BT.709

  36. Matrix coefficients : BT.709


  37. Audio #1

  38. ID : 2

  39. Format : E-AC-3

  40. Format/Info : Enhanced AC-3

  41. Commercial name : Dolby Digital Plus

  42. Codec ID : A_EAC3

  43. Duration : 1 h 38 min

  44. Bit rate mode : Constant

  45. Bit rate : 256 kb/s

  46. Channel(s) : 2 channels

  47. Channel layout : L R

  48. Sampling rate : 48.0 kHz

  49. Frame rate : 31.250 FPS (1536 SPF)

  50. Compression mode : Lossy

  51. Delay relative to video : 4 ms

  52. Stream size : 180 MiB (3%)

  53. Title : 国语

  54. Service kind : Complete Main

  55. Default : Yes

  56. Forced : No


  57. Audio #2

  58. ID : 3

  59. Format : E-AC-3

  60. Format/Info : Enhanced AC-3

  61. Commercial name : Dolby Digital Plus

  62. Codec ID : A_EAC3

  63. Duration : 1 h 38 min

  64. Bit rate mode : Constant

  65. Bit rate : 256 kb/s

  66. Channel(s) : 2 channels

  67. Channel layout : L R

  68. Sampling rate : 48.0 kHz

  69. Frame rate : 31.250 FPS (1536 SPF)

  70. Compression mode : Lossy

  71. Delay relative to video : 4 ms

  72. Stream size : 180 MiB (3%)

  73. Title : 粤语

  74. Service kind : Complete Main

  75. Default : No

  76. Forced : No


  77. Audio #3

  78. ID : 4

  79. Format : AAC LC

  80. Format/Info : Advanced Audio Codec Low Complexity

  81. Codec ID : A_AAC-2

  82. Duration : 1 h 38 min

  83. Bit rate : 192 kb/s

  84. Channel(s) : 2 channels

  85. Channel layout : L R

  86. Sampling rate : 44.1 kHz

  87. Frame rate : 43.066 FPS (1024 SPF)

  88. Compression mode : Lossy

  89. Stream size : 133 MiB (3%)

  90. Title : 国语

  91. Default : No

  92. Forced : No


  93. Audio #4

  94. ID : 5

  95. Format : AAC LC

  96. Format/Info : Advanced Audio Codec Low Complexity

  97. Codec ID : A_AAC-2

  98. Duration : 1 h 38 min

  99. Bit rate : 192 kb/s

  100. Channel(s) : 2 channels

  101. Channel layout : L R

  102. Sampling rate : 44.1 kHz

  103. Frame rate : 43.066 FPS (1024 SPF)

  104. Compression mode : Lossy

  105. Stream size : 133 MiB (3%)

  106. Title : 粤语

  107. Default : No

  108. Forced : No


复制代码




文件下载


除非特别注明,本文『明日战记[60帧率版本][中文字幕/国粤语音轨].Warriors.of.Future.2022.2160p.WEB-DL.60fps.H265.10bit.DDP-TAGWEB 5.12GB』来源于互联网机器人自动抓取,非本站原创。 浮游电影网不对本文拥有版权,如有侵犯,请联系邮箱:fuyouu#yandex.com[#换成@]投诉。我们会在15个工作日内删除。 但烦请转载时请标明出处:“本文转载于『浮游电影网』,原文地址:https://www.fuyouu.com/22907.html

评论吧骚年!

发表你的见解   

昵称*

E-mail*(建议输入,以便收到博主回复的提示邮件)

验证码*

您可以使用eMule或eMule Mod(Windows)、aMule(Win、Linux、Mac)等软件下载eD2k链接。。
eMule收藏集(.emulecollection)文件是您选中的所有链接的列表文件。eMule可以直接下载它们。
按住SHIFT键选择可以选中多个选择框。
可用文件名和大小选择器来选择文件。
文件名选择器帮您根据文件名称或后缀来选择文件。不分大小写。
符号使用:
和:空格( )、+
不包含:-
或:|
转义:一对英文引号("");
匹配开头:^
匹配结尾:$
例如:
选中所有名称中包含有“eMule”或“0.49c”字眼,但不包含有“exe”字眼的:emule|0.49c -exe
选中所有名称的开头是“eMule”,结尾是“0.49c”的:^emule 0.49c$
选中所有名称中带有“eMule 0.49c”的(必须是“eMule 0.49c”,中间没有别的字符,不能是“eMule fake 0.49c”),需要转义:"emule 0.49c"
大小选择器帮您根据文件大小选择文件。