当前位置: 首页 >> 欧美电影 >> 解放黑奴[简繁英字幕].Emancipation.2022.1080p.Apple.TV/.WEB-DL.DDP5.1.Atmos.H.264-DreamHD 9.69GB >> 正文

解放黑奴[简繁英字幕].Emancipation.2022.1080p.Apple.TV/.WEB-DL.DDP5.1.Atmos.H.264-DreamHD 9.69GB

2022年12月10日 12:49:09     电影发布:来源于网络     电影分类:欧美电影     评论(0)    

◎标 题 解放黑奴

◎译 名 自由路上

◎片 名 Emancipation

◎年 代 2022

◎产 地 美国

◎类 别 动作 / 惊悚

◎语 言 英语

◎上映日期 2022-12-02(美国) / 2022-12-09(美国网络)

◎IMDb评分 3.4/10 (222人评价)

◎IMDb链接 https://www.imdb.com/title/tt12530246/

◎豆瓣链接 https://movie.douban.com/subject/35099708/

◎片 长 132分钟

◎导 演 安东尼·福奎阿 Antoine Fuqua

◎编 剧 比尔·科拉奇 Bill Collage

◎演 员 威尔·史密斯 Will Smith

本·福斯特 Ben Foster

格兰特·哈维 Grant Harvey

大卫·丹曼 David Denman

史蒂文·奥格 Steven Ogg

夏尔曼·宾瓦 Charmaine Bingwa

伊曼尼·普勒姆 Imani Pullum

保罗·本-维克托 Paul Ben-Victor

穆斯塔法·沙基尔 Mustafa Shakir

戴夫·戴维斯 Dave Davis

罗尼·吉恩·贝尔维斯 Ronnie Gene Blevins

杰拉德·班肯斯 Jared Bankens

Aaron Moten Aaron Moten

杰森·华纳·史密斯 Jayson Warner Smith

沃克·巴宾顿 Walker Babington

马克·阿什沃斯 Mark Ashworth

唐纳德·保罗 Donald Paul

蒂莫西·辛里奇斯 Timothy Hinrichs

弗兰辛·杰米森-坦查克 Francine Jamison-Tanchuck

◎简 介

威尔·史密斯饰演真实历史人物:饱受折磨后逃出美国南方奴隶主奴役的黑人彼得、美国奴隶制的著名“证据”照片的主人公。

影片风格被描述为比起《为奴十二年》,更像梅尔·吉布森执导的《启示录》,Willam N. Collage写剧本,故事来自彼得的真实经历:他从奴隶主手中逃出,忍受着冷血的猎人的追杀和路易斯安那州危险的沼泽,一路向北。而当逃到北方军中,接受检查时,彼得露出了自己被种植园中的监工鞭笞得累累伤痕的后背。这一幕被拍成了著名的照片“被鞭打的脊背”(the scourged back),刊登在1863年5月的《Independent》,以及当年7月4日的《Harper’s Weekly》。该照片成为美国奴隶制残忍暴行的证据之一,发布后推动了废奴运动和促使许多自由的黑人加入联邦军,并流传到世界各地,传言称这张照片使得法国国家拒绝从美国南方购买棉花。

  1. ##### MediaInfo ######

  2. General

  3. Unique ID : 144501446102415843572458339166121622614 (0x6CB5F7593FE2A6A2958C3C331AA3FC56)

  4. Complete name : Emancipation.2022.1080p.Apple.TV+.WEB-DL.DDP5.1.Atmos.H.264-DreamHD.mkv

  5. Format : Matroska

  6. Format version : Version 4

  7. File size : 9.69 GiB

  8. Duration : 2 h 12 min

  9. Overall bit rate : 10.5 Mb/s

  10. Encoded date : UTC 2022-12-09 11:22:55

  11. Writing application : mkvmerge v71.1.0 ('Fortitude') 64-bit

  12. Writing library : libebml v1.4.4 + libmatroska v1.7.1


  13. Video

  14. ID : 1

  15. Format : AVC

  16. Format/Info : Advanced Video Codec

  17. Format profile : [email protected]

  18. Format settings : CABAC / 5 Ref Frames

  19. Format settings, CABAC : Yes

  20. Format settings, Reference frames : 5 frames

  21. Codec ID : V_MPEG4/ISO/AVC

  22. Duration : 2 h 12 min

  23. Bit rate : 9 703 kb/s

  24. Width : 1 918 pixels

  25. Height : 802 pixels

  26. Display aspect ratio : 2.40:1

  27. Frame rate mode : Constant

  28. Frame rate : 23.976 (24000/1001) FPS

  29. Color space : YUV

  30. Chroma subsampling : 4:2:0

  31. Bit depth : 8 bits

  32. Scan type : Progressive

  33. Bits/(Pixel*Frame) : 0.263

  34. Stream size : 8.98 GiB (93%)

  35. Language : English

  36. Default : Yes

  37. Forced : No

  38. Color range : Limited

  39. Color primaries : BT.709

  40. Transfer characteristics : BT.709

  41. Matrix coefficients : BT.709


  42. Audio

  43. ID : 2

  44. Format : E-AC-3 JOC

  45. Format/Info : Enhanced AC-3 with Joint Object Coding

  46. Commercial name : Dolby Digital Plus with Dolby Atmos

  47. Codec ID : A_EAC3

  48. Duration : 2 h 12 min

  49. Bit rate mode : Constant

  50. Bit rate : 768 kb/s

  51. Channel(s) : 6 channels

  52. Channel layout : L R C LFE Ls Rs

  53. Sampling rate : 48.0 kHz

  54. Frame rate : 31.250 FPS (1536 SPF)

  55. Compression mode : Lossy

  56. Stream size : 728 MiB (7%)

  57. Language : English

  58. Service kind : Complete Main

  59. Default : Yes

  60. Forced : No

  61. Complexity index : 16

  62. Number of dynamic objects : 15

  63. Bed channel count : 1 channel

  64. Bed channel configuration : LFE


  65. Text #1

  66. ID : 3

  67. Format : UTF-8

  68. Codec ID : S_TEXT/UTF8

  69. Codec ID/Info : UTF-8 Plain Text

  70. Duration : 2 h 3 min

  71. Bit rate : 36 b/s

  72. Count of elements : 1276

  73. Stream size : 32.9 KiB (0%)

  74. Title : SDH

  75. Language : English

  76. Default : No

  77. Forced : No


  78. Text #2

  79. ID : 4

  80. Format : UTF-8

  81. Codec ID : S_TEXT/UTF8

  82. Codec ID/Info : UTF-8 Plain Text

  83. Duration : 2 h 11 min

  84. Bit rate : 32 b/s

  85. Count of elements : 1298

  86. Stream size : 31.4 KiB (0%)

  87. Title : Simplified (SDH)

  88. Language : Chinese

  89. Default : No

  90. Forced : No


  91. Text #3

  92. ID : 5

  93. Format : UTF-8

  94. Codec ID : S_TEXT/UTF8

  95. Codec ID/Info : UTF-8 Plain Text

  96. Duration : 2 h 11 min

  97. Bit rate : 32 b/s

  98. Count of elements : 1301

  99. Stream size : 31.9 KiB (0%)

  100. Title : Traditional (SDH)

  101. Language : Chinese

  102. Default : No

  103. Forced : No


复制代码




文件下载


除非特别注明,本文『解放黑奴[简繁英字幕].Emancipation.2022.1080p.Apple.TV/.WEB-DL.DDP5.1.Atmos.H.264-DreamHD 9.69GB』来源于互联网机器人自动抓取,非本站原创。 浮游电影网不对本文拥有版权,如有侵犯,请联系邮箱:fuyouu#yandex.com[#换成@]投诉。我们会在15个工作日内删除。 但烦请转载时请标明出处:“本文转载于『浮游电影网』,原文地址:https://www.fuyouu.com/22905.html

评论吧骚年!

发表你的见解   

昵称*

E-mail*(建议输入,以便收到博主回复的提示邮件)

验证码*

您可以使用eMule或eMule Mod(Windows)、aMule(Win、Linux、Mac)等软件下载eD2k链接。。
eMule收藏集(.emulecollection)文件是您选中的所有链接的列表文件。eMule可以直接下载它们。
按住SHIFT键选择可以选中多个选择框。
可用文件名和大小选择器来选择文件。
文件名选择器帮您根据文件名称或后缀来选择文件。不分大小写。
符号使用:
和:空格( )、+
不包含:-
或:|
转义:一对英文引号("");
匹配开头:^
匹配结尾:$
例如:
选中所有名称中包含有“eMule”或“0.49c”字眼,但不包含有“exe”字眼的:emule|0.49c -exe
选中所有名称的开头是“eMule”,结尾是“0.49c”的:^emule 0.49c$
选中所有名称中带有“eMule 0.49c”的(必须是“eMule 0.49c”,中间没有别的字符,不能是“eMule fake 0.49c”),需要转义:"emule 0.49c"
大小选择器帮您根据文件大小选择文件。