当前位置: 首页 >> 日韩电影 >> 噬谎者[简繁英字幕].Usogui.2022.1080p.NF.WEB-DL.DDP5.1.x264-MOMOWEB 2.54GB >> 正文

噬谎者[简繁英字幕].Usogui.2022.1080p.NF.WEB-DL.DDP5.1.x264-MOMOWEB 2.54GB

2022年12月10日 12:48:33     电影发布:来源于网络     电影分类:日韩电影     评论(0)    

◎标 题 噬谎者

◎译 名 Usogui

◎片 名 嘘喰い

◎年 代 2022

◎产 地 日本

◎类 别 惊悚

◎语 言 日语

◎上映日期 2022-02-11(日本)

◎IMDb评分 6.5/10 (61人评价)

◎IMDb链接 https://www.imdb.com/title/tt5715464/

◎豆瓣评分 5.7/10 (727人评价)

◎豆瓣链接 https://movie.douban.com/subject/26791596/

◎导 演 中田秀夫 Hideo Nakata

◎编 剧 江良至 Itaru Era

大石哲也 Tetsuya Oishi

◎演 员 横滨流星 Ryûsei Yokohama

佐野勇斗 Sano Hayato

本乡奏多 Kanata Hongô

白石麻衣 Mai Shiraishi

樱井海音 Kaito Sakurai

村上弘明 Hiroaki Murakami

三浦翔平 Shohei Miura

森崎温 Win Morisaki

木村了 Ryo Kimura

鹤见辰吾 Shingo Tsurumi

◎简 介

迫稔雄漫画作品《噬谎者》宣布真人电影化,横浜流星主演,本作将于2022年2月在日本上映。

Staff

原作:迫稔雄(「嘘喰い」集英社ヤングジャンプコミックス刊)

监督:中田秀夫

配给:ワーナー・ブラザース映画

Cast

斑目貘:横浜流星

  1. ##### MediaInfo ######

  2. General

  3. Unique ID : 68499369618273358456027084557747052825 (0x33887FAB96139C3235126BCF82496119)

  4. Complete name : Usogui.2022.1080p.NF.WEB-DL.DDP5.1.x264-MOMOWEB.mkv

  5. Format : Matroska

  6. Format version : Version 4

  7. File size : 2.54 GiB

  8. Duration : 1 h 59 min

  9. Overall bit rate mode : Variable

  10. Overall bit rate : 3 034 kb/s

  11. Movie name : Usogui.2022.1080p.NF.WEB-DL.DDP5.1.x264-PTerWEB

  12. Encoded date : UTC 2022-12-08 11:41:54

  13. Writing application : mkvmerge v72.0.0 ('Minuano (Six-eight)') 64-bit

  14. Writing library : libebml v1.4.4 + libmatroska v1.7.1


  15. Video

  16. ID : 1

  17. Format : AVC

  18. Format/Info : Advanced Video Codec

  19. Format profile : [email protected]

  20. Format settings : CABAC / 3 Ref Frames

  21. Format settings, CABAC : Yes

  22. Format settings, Reference frames : 3 frames

  23. Codec ID : V_MPEG4/ISO/AVC

  24. Duration : 1 h 59 min

  25. Bit rate mode : Variable

  26. Bit rate : 2 391 kb/s

  27. Nominal bit rate : 2 534 kb/s

  28. Maximum bit rate : 6 030 kb/s

  29. Width : 1 920 pixels

  30. Height : 1 080 pixels

  31. Display aspect ratio : 16:9

  32. Frame rate mode : Constant

  33. Frame rate : 23.976 (24000/1001) FPS

  34. Color space : YUV

  35. Chroma subsampling : 4:2:0

  36. Bit depth : 8 bits

  37. Scan type : Progressive

  38. Bits/(Pixel*Frame) : 0.048

  39. Stream size : 2.00 GiB (79%)

  40. Writing library : x264 core 148 r2727 7d026e8

  41. Encoding settings : cabac=1 / ref=3 / deblock=1:0:0 / analyse=0x1:0x111 / me=umh / subme=10 / psy=1 / psy_rd=1.00:0.00 / mixed_ref=1 / me_range=24 / chroma_me=1 / trellis=2 / 8x8dct=0 / cqm=0 / deadzone=21,11 / fast_pskip=1 / chroma_qp_offset=-2 / threads=8 / lookahead_threads=1 / sliced_threads=0 / nr=0 / decimate=1 / interlaced=0 / bluray_compat=0 / stitchable=1 / constrained_intra=0 / bframes=2 / b_pyramid=0 / b_adapt=2 / b_bias=0 / direct=3 / weightb=1 / open_gop=0 / weightp=2 / keyint=250 / keyint_min=23 / scenecut=0 / intra_refresh=0 / rc_lookahead=48 / rc=2pass / mbtree=1 / bitrate=2534 / ratetol=1.0 / qcomp=0.50 / qpmin=6 / qpmax=51 / qpstep=4 / cplxblur=20.0 / qblur=0.5 / vbv_maxrate=6030 / vbv_bufsize=8040 / nal_hrd=vbr / filler=0 / ip_ratio=1.40 / aq=1:1.00

  42. Default : Yes

  43. Forced : No


  44. Audio

  45. ID : 2

  46. Format : E-AC-3

  47. Format/Info : Enhanced AC-3

  48. Commercial name : Dolby Digital Plus

  49. Codec ID : A_EAC3

  50. Duration : 1 h 59 min

  51. Bit rate mode : Constant

  52. Bit rate : 640 kb/s

  53. Channel(s) : 6 channels

  54. Channel layout : L R C LFE Ls Rs

  55. Sampling rate : 48.0 kHz

  56. Frame rate : 31.250 FPS (1536 SPF)

  57. Compression mode : Lossy

  58. Stream size : 549 MiB (21%)

  59. Title : Japanese

  60. Language : Japanese

  61. Service kind : Complete Main

  62. Default : Yes

  63. Forced : No


  64. Text #1

  65. ID : 3

  66. Format : UTF-8

  67. Codec ID : S_TEXT/UTF8

  68. Codec ID/Info : UTF-8 Plain Text

  69. Duration : 1 h 59 min

  70. Bit rate : 38 b/s

  71. Count of elements : 1182

  72. Stream size : 33.7 KiB (0%)

  73. Language : English

  74. Default : No

  75. Forced : No


  76. Text #2

  77. ID : 4

  78. Format : UTF-8

  79. Codec ID : S_TEXT/UTF8

  80. Codec ID/Info : UTF-8 Plain Text

  81. Duration : 1 h 59 min

  82. Bit rate : 39 b/s

  83. Count of elements : 1226

  84. Stream size : 34.7 KiB (0%)

  85. Language : Indonesian

  86. Default : No

  87. Forced : No


  88. Text #3

  89. ID : 5

  90. Format : UTF-8

  91. Codec ID : S_TEXT/UTF8

  92. Codec ID/Info : UTF-8 Plain Text

  93. Duration : 1 h 58 min

  94. Bit rate : 92 b/s

  95. Count of elements : 1434

  96. Stream size : 79.9 KiB (0%)

  97. Title : SDH

  98. Language : Japanese

  99. Default : No

  100. Forced : No


  101. Text #4

  102. ID : 6

  103. Format : UTF-8

  104. Codec ID : S_TEXT/UTF8

  105. Codec ID/Info : UTF-8 Plain Text

  106. Duration : 1 h 59 min

  107. Bit rate : 44 b/s

  108. Count of elements : 1262

  109. Stream size : 38.8 KiB (0%)

  110. Language : Korean

  111. Default : No

  112. Forced : No


  113. Text #5

  114. ID : 7

  115. Format : UTF-8

  116. Codec ID : S_TEXT/UTF8

  117. Codec ID/Info : UTF-8 Plain Text

  118. Duration : 1 h 59 min

  119. Bit rate : 40 b/s

  120. Count of elements : 1226

  121. Stream size : 35.3 KiB (0%)

  122. Language : Malay

  123. Default : No

  124. Forced : No


  125. Text #6

  126. ID : 8

  127. Format : UTF-8

  128. Codec ID : S_TEXT/UTF8

  129. Codec ID/Info : UTF-8 Plain Text

  130. Duration : 1 h 59 min

  131. Bit rate : 94 b/s

  132. Count of elements : 1229

  133. Stream size : 83.1 KiB (0%)

  134. Language : Thai

  135. Default : No

  136. Forced : No


  137. Text #7

  138. ID : 9

  139. Format : UTF-8

  140. Codec ID : S_TEXT/UTF8

  141. Codec ID/Info : UTF-8 Plain Text

  142. Duration : 1 h 59 min

  143. Bit rate : 54 b/s

  144. Count of elements : 1227

  145. Stream size : 47.4 KiB (0%)

  146. Language : Vietnamese

  147. Default : No

  148. Forced : No


  149. Text #8

  150. ID : 10

  151. Format : UTF-8

  152. Codec ID : S_TEXT/UTF8

  153. Codec ID/Info : UTF-8 Plain Text

  154. Duration : 1 h 58 min

  155. Bit rate : 35 b/s

  156. Count of elements : 1222

  157. Stream size : 31.0 KiB (0%)

  158. Title : 中文(简体)

  159. Language : Chinese

  160. Default : No

  161. Forced : No


  162. Text #9

  163. ID : 11

  164. Format : UTF-8

  165. Codec ID : S_TEXT/UTF8

  166. Codec ID/Info : UTF-8 Plain Text

  167. Duration : 1 h 58 min

  168. Bit rate : 36 b/s

  169. Count of elements : 1222

  170. Stream size : 31.5 KiB (0%)

  171. Title : 中文(繁體)

  172. Language : Chinese

  173. Default : No

  174. Forced : No


复制代码




文件下载


除非特别注明,本文『噬谎者[简繁英字幕].Usogui.2022.1080p.NF.WEB-DL.DDP5.1.x264-MOMOWEB 2.54GB』来源于互联网机器人自动抓取,非本站原创。 浮游电影网不对本文拥有版权,如有侵犯,请联系邮箱:fuyouu#yandex.com[#换成@]投诉。我们会在15个工作日内删除。 但烦请转载时请标明出处:“本文转载于『浮游电影网』,原文地址:https://www.fuyouu.com/22904.html

评论吧骚年!

发表你的见解   

昵称*

E-mail*(建议输入,以便收到博主回复的提示邮件)

验证码*

您可以使用eMule或eMule Mod(Windows)、aMule(Win、Linux、Mac)等软件下载eD2k链接。。
eMule收藏集(.emulecollection)文件是您选中的所有链接的列表文件。eMule可以直接下载它们。
按住SHIFT键选择可以选中多个选择框。
可用文件名和大小选择器来选择文件。
文件名选择器帮您根据文件名称或后缀来选择文件。不分大小写。
符号使用:
和:空格( )、+
不包含:-
或:|
转义:一对英文引号("");
匹配开头:^
匹配结尾:$
例如:
选中所有名称中包含有“eMule”或“0.49c”字眼,但不包含有“exe”字眼的:emule|0.49c -exe
选中所有名称的开头是“eMule”,结尾是“0.49c”的:^emule 0.49c$
选中所有名称中带有“eMule 0.49c”的(必须是“eMule 0.49c”,中间没有别的字符,不能是“eMule fake 0.49c”),需要转义:"emule 0.49c"
大小选择器帮您根据文件大小选择文件。