当前位置: 首页 >> 欧美电影 >> 阿姆斯特丹[简繁英字幕].Amsterdam.2022.1080p.BluRay.x265.10bit.DTS-CTRLHD 8.04GB >> 正文

阿姆斯特丹[简繁英字幕].Amsterdam.2022.1080p.BluRay.x265.10bit.DTS-CTRLHD 8.04GB

2022年12月09日 15:55:08     电影发布:来源于网络     电影分类:欧美电影     评论(0)    

◎标 题 阿姆斯特丹

◎译 名 坎特伯雷花窗 / Canterbury Glass

◎片 名 Amsterdam

◎年 代 2022

◎产 地 美国

◎类 别 喜剧 / 悬疑 / 历史

◎语 言 英语

◎上映日期 2022-09-27(美国IMAX) / 2022-10-07(美国)

◎IMDb评分 6.2/10 (5112人评价)

◎IMDb链接 https://www.imdb.com/title/tt10304142/

◎豆瓣评分 6.0/10 (441人评价)

◎豆瓣链接 https://movie.douban.com/subject/33434802/

◎片 长 134分钟

◎导 演 大卫·O·拉塞尔 David O. Russell

◎编 剧 大卫·O·拉塞尔 David O. Russell

◎演 员 克里斯蒂安·贝尔 Christian Bale

玛格特·罗比 Margot Robbie

约翰·大卫·华盛顿 John David Washington

亚历桑德罗·尼沃拉 Alessandro Nivola

安德丽娅·赖斯伯勒 Andrea Riseborough

安雅·泰勒-乔伊 Anya Taylor-Joy

克里斯·洛克 Chris Rock

马提亚斯·修奈尔 Matthias Schoenaerts

迈克尔·珊农 Michael Shannon

麦克·梅尔斯 Mike Myers

泰勒·斯威夫特 Taylor Swift

蒂莫西·奥利芬特 Timothy Olyphant

佐伊·索尔达娜 Zoe Saldana

拉米·马雷克 Rami Malek

罗伯特·德尼罗 Robert De Niro

梅尔·法尔 Mel Fair

邦尼·赫尔曼 Bonnie Hellman

马克斯·佩利希 Max Perlich

小艾德·博格里 Ed Begley Jr.

考林·加普 Colleen Camp

劳伦·肖 Lauren Shaw

布兰登·戴维斯 Brandon Davis

凯西·比格斯 Casey Biggs

戴·扬 Dey Young

肖恩·艾弗里 Sean Avery

洁基伯明翰 Gigi Bermingham

瑞贝卡·薇索基 Rebecca Wisocky

史蒂文·哈克 Steven Hack

贝丝·格兰特 Beth Grant

汤姆·埃尔文 Tom Irwin

利兰·奥瑟 Leland Orser

马丁·威廉·哈里斯 Martin William Harris

文森特·M·比肖内 Vincent M. Biscione

詹姆斯·亨特 James Hunter

亚当·G·西蒙 Adam G. Simon

希尔迪·居兹纳多蒂尔 Hildur Guðnadóttir

艾曼努尔·卢贝兹基 Emmanuel Lubezki

朱迪·贝克尔 Judy Becker

艾伯特·沃斯基 Albert Wolsky

J.R. Hawbaker J.R. Hawbaker

◎简 介

三位好友,一桩谜案,惊天阴谋,即将揭晓...... 全明星阵容共同演绎,奥斯卡提名导演大卫·O·拉塞尔执导,克里斯蒂安·贝尔、玛格特·罗比、约翰·大卫·华盛顿主演,泰勒·斯威夫特惊喜亮相!当目击者变成嫌疑人,身处风暴中心的他们,该如何守护彼此,发现真相?

  1. ##### MediaInfo ######

  2. General

  3. Unique ID : 330635888887385801286554748093777374822 (0xF8BE27E9B33A9542AEE756A94AC4EE66)

  4. Complete name : Amsterdam.2022.1080p.BluRay.x265.10bit.DTS-CTRLHD.mkv

  5. Format : Matroska

  6. Format version : Version 4

  7. File size : 8.04 GiB

  8. Duration : 2 h 14 min

  9. Overall bit rate : 8 571 kb/s

  10. Encoded date : UTC 2022-12-07 07:36:35

  11. Writing application : mkvmerge v70.0.0 ('Caught A Lite Sneeze') 64-bit

  12. Writing library : libebml v1.4.2 + libmatroska v1.6.4

  13. Attachments : MSYH.TTF / MSYH_chscht.ttf / MSYHBD.TTF / tahoma.ttf


  14. Video

  15. ID : 1

  16. Format : HEVC

  17. Format/Info : High Efficiency Video Coding

  18. Format profile : Main [email protected]@Main

  19. Codec ID : V_MPEGH/ISO/HEVC

  20. Duration : 2 h 14 min

  21. Bit rate : 6 981 kb/s

  22. Width : 1 920 pixels

  23. Height : 804 pixels

  24. Display aspect ratio : 2.40:1

  25. Frame rate mode : Constant

  26. Frame rate : 23.976 (24000/1001) FPS

  27. Color space : YUV

  28. Chroma subsampling : 4:2:0

  29. Bit depth : 10 bits

  30. Bits/(Pixel*Frame) : 0.189

  31. Stream size : 6.55 GiB (81%)

  32. Default : Yes

  33. Forced : No


  34. Audio

  35. ID : 2

  36. Format : DTS

  37. Format/Info : Digital Theater Systems

  38. Codec ID : A_DTS

  39. Duration : 2 h 14 min

  40. Bit rate mode : Constant

  41. Bit rate : 1 509 kb/s

  42. Channel(s) : 6 channels

  43. Channel layout : C L R Ls Rs LFE

  44. Sampling rate : 48.0 kHz

  45. Frame rate : 93.750 FPS (512 SPF)

  46. Bit depth : 24 bits

  47. Compression mode : Lossy

  48. Stream size : 1.42 GiB (18%)

  49. Title : English

  50. Language : English

  51. Default : Yes

  52. Forced : No


  53. Text #1

  54. ID : 3

  55. Format : ASS

  56. Codec ID : S_TEXT/ASS

  57. Codec ID/Info : Advanced Sub Station Alpha

  58. Duration : 2 h 13 min

  59. Bit rate : 241 b/s

  60. Count of elements : 2465

  61. Compression mode : Lossless

  62. Stream size : 236 KiB (0%)

  63. Title : chs

  64. Language : Chinese

  65. Default : Yes

  66. Forced : No


  67. Text #2

  68. ID : 4

  69. Format : ASS

  70. Codec ID : S_TEXT/ASS

  71. Codec ID/Info : Advanced Sub Station Alpha

  72. Duration : 2 h 13 min

  73. Bit rate : 241 b/s

  74. Count of elements : 2465

  75. Compression mode : Lossless

  76. Stream size : 236 KiB (0%)

  77. Title : cht

  78. Language : Chinese

  79. Default : No

  80. Forced : No


  81. Text #3

  82. ID : 5

  83. Format : PGS

  84. Muxing mode : zlib

  85. Codec ID : S_HDMV/PGS

  86. Codec ID/Info : Picture based subtitle format used on BDs/HD-DVDs

  87. Duration : 2 h 12 min

  88. Bit rate : 73.7 kb/s

  89. Count of elements : 6318

  90. Stream size : 69.9 MiB (1%)

  91. Title : eng

  92. Language : English

  93. Default : No

  94. Forced : No


复制代码


文件下载



除非特别注明,本文『阿姆斯特丹[简繁英字幕].Amsterdam.2022.1080p.BluRay.x265.10bit.DTS-CTRLHD 8.04GB』来源于互联网机器人自动抓取,非本站原创。 浮游电影网不对本文拥有版权,如有侵犯,请联系邮箱:fuyouu#yandex.com[#换成@]投诉。我们会在15个工作日内删除。 但烦请转载时请标明出处:“本文转载于『浮游电影网』,原文地址:https://www.fuyouu.com/22902.html

评论吧骚年!

发表你的见解   

昵称*

E-mail*(建议输入,以便收到博主回复的提示邮件)

验证码*

您可以使用eMule或eMule Mod(Windows)、aMule(Win、Linux、Mac)等软件下载eD2k链接。。
eMule收藏集(.emulecollection)文件是您选中的所有链接的列表文件。eMule可以直接下载它们。
按住SHIFT键选择可以选中多个选择框。
可用文件名和大小选择器来选择文件。
文件名选择器帮您根据文件名称或后缀来选择文件。不分大小写。
符号使用:
和:空格( )、+
不包含:-
或:|
转义:一对英文引号("");
匹配开头:^
匹配结尾:$
例如:
选中所有名称中包含有“eMule”或“0.49c”字眼,但不包含有“exe”字眼的:emule|0.49c -exe
选中所有名称的开头是“eMule”,结尾是“0.49c”的:^emule 0.49c$
选中所有名称中带有“eMule 0.49c”的(必须是“eMule 0.49c”,中间没有别的字符,不能是“eMule fake 0.49c”),需要转义:"emule 0.49c"
大小选择器帮您根据文件大小选择文件。