当前位置: 首页 >> 港台电影 >> 明日战记[国语配音/中文字幕].Warriors.of.Future.2022.1080p.NF.WEB-DL.DDP5.1.H.264-DreamHD 4.41GB >> 正文

明日战记[国语配音/中文字幕].Warriors.of.Future.2022.1080p.NF.WEB-DL.DDP5.1.H.264-DreamHD 4.41GB

2022年12月08日 13:37:15     电影发布:来源于网络     电影分类:港台电影     评论(0)    

◎标 题 明日战记

◎译 名 矛盾战争 / Warriors of Future

◎片 名 明日戰記

◎年 代 2022

◎产 地 中国香港 / 中国大陆

◎类 别 动作 / 科幻

◎语 言 汉语普通话 / 粤语

◎上映日期 2022-08-05(中国大陆) / 2022-08-25(中国香港)

◎IMDb评分 6.4/10 (554人评价)

◎IMDb链接 https://www.imdb.com/title/tt7375466/

◎豆瓣评分 6.4/10 (95202人评价)

◎豆瓣链接 https://movie.douban.com/subject/26353671/

◎片 长 99分钟

◎导 演 吴炫辉 Yuen Fai Ng

◎编 剧 刘浩良 Ho Leung Lau

麦天枢 Tin Shu Mak

◎演 员 古天乐 Louis Koo

刘青云 Sean Lau

刘嘉玲 Carina Lau

姜皓文 Philip Keung Ho-Man

谢君豪 Kwan-Ho Tse

吴倩 Qian Wu

万国鹏 Guopeng Wan

张家辉 Nick Cheung

刘浩良 Ho Leung Lau

麦天枢 Tin Shu Mak

程小夏 Xiaoxia Cheng

赫子铭 Lanpeng He

古天乐 Louis Koo

◎简 介

未来世界,地球因环境污染而千疮百孔,人类家园破败萧条。一颗陨石突然撞击地球,并带来杀伤力极强的外星生物,560万人将因此失去生命。人类命运岌岌可危,总指挥李升(张家辉 饰)派出以军人泰来(古天乐 饰)为首的精英部队前往执行改造计划,部队却突遭暴力攻击,只有泰来和通讯兵光仔(万国鹏 饰)幸存。军官谭冰(刘嘉玲 饰)坚持执行PlanB,指挥官郑重生(刘青云 饰)反对并找来旧友臭鼬(姜皓文 饰)前往支援。拯救家园刻不容缓,但在通讯员小绿(吴倩 饰)悄悄提醒下,泰来发现了一个足以毁天灭地的邪恶阴谋……

  1. ##### MediaInfo ######

  2. General

  3. Unique ID : 162596113505946855007920408088385625434 (0x7A52DF54924EBC5AC89C2F1C9ABB1D5A)

  4. Complete name : Warriors.of.Future.2022.1080p.NF.WEB-DL.DDP5.1.H.264-DreamHD.mkv

  5. Format : Matroska

  6. Format version : Version 4

  7. File size : 4.41 GiB

  8. Duration : 1 h 41 min

  9. Overall bit rate mode : Variable

  10. Overall bit rate : 6 241 kb/s

  11. Encoded date : UTC 2022-12-06 10:50:11

  12. Writing application : mkvmerge v71.1.0 ('Fortitude') 64-bit

  13. Writing library : libebml v1.4.4 + libmatroska v1.7.1


  14. Video

  15. ID : 1

  16. Format : AVC

  17. Format/Info : Advanced Video Codec

  18. Format profile : [email protected]

  19. Format settings : CABAC / 3 Ref Frames

  20. Format settings, CABAC : Yes

  21. Format settings, Reference frames : 3 frames

  22. Codec ID : V_MPEG4/ISO/AVC

  23. Duration : 1 h 41 min

  24. Bit rate mode : Variable

  25. Bit rate : 5 000 kb/s

  26. Maximum bit rate : 7 500 kb/s

  27. Width : 1 920 pixels

  28. Height : 1 080 pixels

  29. Display aspect ratio : 16:9

  30. Frame rate mode : Constant

  31. Frame rate : 24.000 FPS

  32. Color space : YUV

  33. Chroma subsampling : 4:2:0

  34. Bit depth : 8 bits

  35. Scan type : Progressive

  36. Bits/(Pixel*Frame) : 0.100

  37. Stream size : 3.51 GiB (79%)

  38. Writing library : x264 core 148 r2727 7d026e8

  39. Encoding settings : cabac=1 / ref=3 / deblock=1:0:0 / analyse=0x1:0x111 / me=umh / subme=10 / psy=1 / psy_rd=1.00:0.00 / mixed_ref=1 / me_range=24 / chroma_me=1 / trellis=2 / 8x8dct=0 / cqm=0 / deadzone=21,11 / fast_pskip=1 / chroma_qp_offset=-2 / threads=8 / lookahead_threads=1 / sliced_threads=0 / nr=0 / decimate=1 / interlaced=0 / NTMzNTQ= / bluray_compat=0 / stitchable=1 / constrained_intra=0 / bframes=2 / b_pyramid=0 / b_adapt=2 / b_bias=0 / direct=3 / weightb=1 / open_gop=0 / weightp=2 / keyint=48 / keyint_min=25 / scenecut=0 / intra_refresh=0 / rc_lookahead=48 / rc=2pass / mbtree=1 / bitrate=5000 / ratetol=1.0 / qcomp=0.50 / qpmin=6 / qpmax=51 / qpstep=4 / cplxblur=20.0 / qblur=0.5 / vbv_maxrate=7500 / vbv_bufsize=10000 / nal_hrd=vbr / filler=0 / NTMzNTQ=LmsMAP37EqsCpk / ip_ratio=1.40 / aq=1:1.00

  40. Language : Chinese

  41. Default : Yes

  42. Forced : No


  43. Audio #1

  44. ID : 2

  45. Format : E-AC-3

  46. Format/Info : Enhanced AC-3

  47. Commercial name : Dolby Digital Plus

  48. Codec ID : A_EAC3

  49. Duration : 1 h 41 min

  50. Bit rate mode : Constant

  51. Bit rate : 640 kb/s

  52. Channel(s) : 6 channels

  53. Channel layout : L R C LFE Ls Rs

  54. Sampling rate : 48.0 kHz

  55. Frame rate : 31.250 FPS (1536 SPF)

  56. Compression mode : Lossy

  57. Stream size : 463 MiB (10%)

  58. Title : China

  59. Language : Chinese

  60. Service kind : Complete Main

  61. Default : Yes

  62. Forced : No


  63. Audio #2

  64. ID : 3

  65. Format : E-AC-3

  66. Format/Info : Enhanced AC-3

  67. Commercial name : Dolby Digital Plus

  68. Codec ID : A_EAC3

  69. Duration : 1 h 41 min

  70. Bit rate mode : Constant

  71. Bit rate : 640 kb/s

  72. Channel(s) : 6 channels

  73. Channel layout : L R C LFE Ls Rs

  74. Sampling rate : 48.0 kHz

  75. Frame rate : 31.250 FPS (1536 SPF)

  76. Compression mode : Lossy

  77. Stream size : 463 MiB (10%)

  78. Language : Chinese

  79. Service kind : Complete Main

  80. Default : No

  81. Forced : No


  82. Text #1

  83. ID : 4

  84. Format : UTF-8

  85. Codec ID : S_TEXT/UTF8

  86. Codec ID/Info : UTF-8 Plain Text

  87. Duration : 1 h 34 min

  88. Bit rate : 3 b/s

  89. Count of elements : 80

  90. Stream size : 2.31 KiB (0%)

  91. Title : Simplified (Forced)

  92. Language : Chinese

  93. Default : Yes

  94. Forced : Yes


  95. Text #2

  96. ID : 5

  97. Format : UTF-8

  98. Codec ID : S_TEXT/UTF8

  99. Codec ID/Info : UTF-8 Plain Text

  100. Duration : 1 h 37 min

  101. Bit rate : 33 b/s

  102. Count of elements : 906

  103. Stream size : 23.5 KiB (0%)

  104. Title : Simplified

  105. Language : Chinese

  106. Default : No

  107. Forced : No


  108. Text #3

  109. ID : 6

  110. Format : UTF-8

  111. Codec ID : S_TEXT/UTF8

  112. Codec ID/Info : UTF-8 Plain Text

  113. Duration : 1 h 29 min

  114. Bit rate : 35 b/s

  115. Count of elements : 932

  116. Stream size : 23.0 KiB (0%)

  117. Title : Traditional

  118. Language : Chinese

  119. Default : No

  120. Forced : No


复制代码





文件下载


除非特别注明,本文『明日战记[国语配音/中文字幕].Warriors.of.Future.2022.1080p.NF.WEB-DL.DDP5.1.H.264-DreamHD 4.41GB』来源于互联网机器人自动抓取,非本站原创。 浮游电影网不对本文拥有版权,如有侵犯,请联系邮箱:fuyouu#yandex.com[#换成@]投诉。我们会在15个工作日内删除。 但烦请转载时请标明出处:“本文转载于『浮游电影网』,原文地址:https://www.fuyouu.com/22900.html

评论吧骚年!

发表你的见解   

昵称*

E-mail*(建议输入,以便收到博主回复的提示邮件)

验证码*

您可以使用eMule或eMule Mod(Windows)、aMule(Win、Linux、Mac)等软件下载eD2k链接。。
eMule收藏集(.emulecollection)文件是您选中的所有链接的列表文件。eMule可以直接下载它们。
按住SHIFT键选择可以选中多个选择框。
可用文件名和大小选择器来选择文件。
文件名选择器帮您根据文件名称或后缀来选择文件。不分大小写。
符号使用:
和:空格( )、+
不包含:-
或:|
转义:一对英文引号("");
匹配开头:^
匹配结尾:$
例如:
选中所有名称中包含有“eMule”或“0.49c”字眼,但不包含有“exe”字眼的:emule|0.49c -exe
选中所有名称的开头是“eMule”,结尾是“0.49c”的:^emule 0.49c$
选中所有名称中带有“eMule 0.49c”的(必须是“eMule 0.49c”,中间没有别的字符,不能是“eMule fake 0.49c”),需要转义:"emule 0.49c"
大小选择器帮您根据文件大小选择文件。