当前位置: 首页 >> 欧美电影 >> 天堂门票[简繁英字幕].Ticket.to.Paradise.2022.1080p.BluRay.x265.10bit.DTS-CTRLHD 6.20GB >> 正文

天堂门票[简繁英字幕].Ticket.to.Paradise.2022.1080p.BluRay.x265.10bit.DTS-CTRLHD 6.20GB

2022年12月08日 13:36:44     电影发布:来源于网络     电影分类:欧美电影     评论(0)    

◎标 题 天堂门票

◎译 名 幸福入场券(台) / 天堂的门票 / 通天票

◎片 名 Ticket To Paradise

◎年 代 2022

◎产 地 美国

◎类 别 喜剧 / 爱情

◎语 言 英语

◎上映日期 2022-09-14(澳大利亚) / 2022-10-21(美国)

◎IMDb评分 6.2/10 (496人评价)

◎IMDb链接 https://www.imdb.com/title/tt14109724/

◎豆瓣链接 https://movie.douban.com/subject/35382459/

◎片 长 104分钟

◎导 演 欧·帕克 Ol Parker

◎编 剧 欧·帕克 Ol Parker

丹尼尔·皮普斯基 Daniel Pipski

◎演 员 朱莉娅·罗伯茨 Julia Roberts

乔治·克鲁尼 George Clooney

凯特琳·德弗 Kaitlyn Dever

马克西姆·布蒂尔 Maxime Bouttier

比莉·洛德 Billie Lourd

卢卡斯·布哈沃 Lucas Bravo

塞纳·梅布拉图 Senayt Mebrahtu

塔拉·森图尔克 Talha Şentürk

穆兰·凯恩 Murran Kain

肖恩·林奇 Sean Lynch

艾萨克·普瑞斯特 Isaac Priest

罗米·普利耶 Romy Poulier

凡妮莎·埃弗里特 Vanesa Everett

辛提亚·达玛扬提 Cintya Dharmayanti

罗温··查普曼 Rowan Chapman

易卜拉欣·伊西克塔斯 Ibrahim Isiktas

阿曼达·奥登普西 Amanda O'Dempsey

◎简 介

乔治·克鲁尼、朱莉娅·罗伯茨大银幕再度合体,饰演一对早已离婚的夫妻被迫携手合作,试图阻止他们被爱冲昏了头的女儿犯下他们曾经犯过的错误。本片是一部关于第二次机会带来的甜美惊喜的爱情喜剧片。

  1. ##### MediaInfo ######

  2. General

  3. Unique ID : 331211752701382102763249684300766541258 (0xF92D1030E4C32A9F7CB7593E95FA75CA)

  4. Complete name : Ticket.to.Paradise.2022.1080p.BluRay.x265.10bit.DTS-CTRLHD.mkv

  5. Format : Matroska

  6. Format version : Version 4

  7. File size : 6.20 GiB

  8. Duration : 1 h 44 min

  9. Overall bit rate : 8 528 kb/s

  10. Encoded date : UTC 2022-12-06 09:58:40

  11. Writing application : mkvmerge v70.0.0 ('Caught A Lite Sneeze') 64-bit

  12. Writing library : libebml v1.4.2 + libmatroska v1.6.4

  13. Attachments : MSYH.TTF / MSYH_chscht.ttf / MSYHBD.TTF / tahoma.ttf


  14. Video

  15. ID : 1

  16. Format : HEVC

  17. Format/Info : High Efficiency Video Coding

  18. Format profile : Main [email protected]@Main

  19. Codec ID : V_MPEGH/ISO/HEVC

  20. Duration : 1 h 44 min

  21. Bit rate : 6 927 kb/s

  22. Width : 1 920 pixels

  23. Height : 804 pixels

  24. Display aspect ratio : 2.40:1

  25. Frame rate mode : Constant

  26. Frame rate : 23.976 (24000/1001/53354) FPS

  27. Color space : YUV

  28. Chroma subsampling : 4:2:0

  29. Bit depth : 10 bits

  30. Bits/(Pixel*Frame) : 0.187

  31. Stream size : 5.03 GiB (81%)

  32. Default : Yes

  33. Forced : No


  34. Audio

  35. ID : 2

  36. Format : DTS

  37. Format/Info : Digital Theater Systems

  38. Codec ID : A_DTS

  39. Duration : 1 h 44 min

  40. Bit rate mode : Constant

  41. Bit rate : 1 509 kb/s

  42. Channel(s) : 6 channels

  43. Channel layout : C L R Ls Rs LFE

  44. Sampling rate : 48.0 kHz

  45. Frame rate : 93.750 FPS (512 SPF)

  46. Bit depth : 24 bits

  47. Compression mode : Lossy

  48. Stream size : 1.10 GiB (18%)

  49. Title : English

  50. Language : English

  51. Default : Yes

  52. Forced : No


  53. Text #1

  54. ID : 3

  55. Format : ASS

  56. Codec ID : S_TEXT/ASS

  57. Codec ID/Info : Advanced Sub Station Alpha

  58. Duration : 1 h 43 min

  59. Bit rate : 192 b/s

  60. Count of elements : 1604

  61. Compression mode : Lossless

  62. Stream size : 146 KiB (0%)

  63. Title : chs

  64. Language : Chinese

  65. Default : Yes

  66. Forced : No


  67. Text #2

  68. ID : 4

  69. Format : ASS

  70. Codec ID : S_TEXT/ASS

  71. Codec ID/Info : Advanced Sub Station Alpha

  72. Duration : 1 h 43 min

  73. Bit rate : 192 b/s

  74. Count of elements : 1604

  75. Compression mode : Lossless

  76. Stream size : 146 KiB (0%)

  77. Title : cht

  78. Language : Chinese

  79. Default : No

  80. Forced : No


  81. Text #3

  82. ID : 5

  83. Format : PGS

  84. Muxing mode : zlib

  85. Codec ID : S_HDMV/PGS

  86. Codec ID/Info : Picture based subtitle format used on BDs/HD-DVDs

  87. Duration : 1 h 38 min

  88. Bit rate : 55.9 kb/s

  89. Count of elements : 3662

  90. Stream size : 39.5 MiB (1%)

  91. Title : eng

  92. Language : English

  93. Default : No

  94. Forced : No


复制代码



文件下载


除非特别注明,本文『天堂门票[简繁英字幕].Ticket.to.Paradise.2022.1080p.BluRay.x265.10bit.DTS-CTRLHD 6.20GB』来源于互联网机器人自动抓取,非本站原创。 浮游电影网不对本文拥有版权,如有侵犯,请联系邮箱:fuyouu#yandex.com[#换成@]投诉。我们会在15个工作日内删除。 但烦请转载时请标明出处:“本文转载于『浮游电影网』,原文地址:https://www.fuyouu.com/22899.html

评论吧骚年!

发表你的见解   

昵称*

E-mail*(建议输入,以便收到博主回复的提示邮件)

验证码*

您可以使用eMule或eMule Mod(Windows)、aMule(Win、Linux、Mac)等软件下载eD2k链接。。
eMule收藏集(.emulecollection)文件是您选中的所有链接的列表文件。eMule可以直接下载它们。
按住SHIFT键选择可以选中多个选择框。
可用文件名和大小选择器来选择文件。
文件名选择器帮您根据文件名称或后缀来选择文件。不分大小写。
符号使用:
和:空格( )、+
不包含:-
或:|
转义:一对英文引号("");
匹配开头:^
匹配结尾:$
例如:
选中所有名称中包含有“eMule”或“0.49c”字眼,但不包含有“exe”字眼的:emule|0.49c -exe
选中所有名称的开头是“eMule”,结尾是“0.49c”的:^emule 0.49c$
选中所有名称中带有“eMule 0.49c”的(必须是“eMule 0.49c”,中间没有别的字符,不能是“eMule fake 0.49c”),需要转义:"emule 0.49c"
大小选择器帮您根据文件大小选择文件。