当前位置: 首页 >> 日韩电影 >> 阴曹使者[简繁英字幕].The.Divine.Fury.2019.1080p.BluRay.DTS.x265-10bit-BATHD 7.73GB >> 正文

阴曹使者[简繁英字幕].The.Divine.Fury.2019.1080p.BluRay.DTS.x265-10bit-BATHD 7.73GB

2022年12月08日 13:36:10     电影发布:来源于网络     电影分类:日韩电影     评论(0)    

◎标 题 阴曹使者

◎译 名 驱魔使者(港 / 台) / 使者 / The Divine Fury

◎片 名 사자

◎年 代 2019

◎产 地 韩国

◎类 别 动作 / 恐怖

◎语 言 韩语

◎上映日期 2019-07-31(韩国)

◎IMDb评分 6.3/10 (2752人评价)

◎IMDb链接 https://www.imdb.com/title/tt10550884/

◎豆瓣评分 6.4/10 (18598人评价)

◎豆瓣链接 https://movie.douban.com/subject/30181079/

◎片 长 129分钟

◎导 演 金周焕 Kim Joo-Hwan

◎编 剧 金周焕 Kim Joo-Hwan

◎演 员 朴叙俊 Seo-Joon Park

安圣基 Sung-kee Ahn

禹棹焕 Woo Do-hwan

朴智炫 Ji-hyun Park

郑志薰 Jung Ji-hoon

李胜熙 Seung-hee Lee

沈熙燮 Hee-seop Sim

崔宇植 Woo-Sik Choi

朴真珠 Jin-ju Park

李成俊 Seung-joon Lee

赵恩亨 Eun-hyung Jo

李雪 Lee Seol

徐正妍 Seo Jung-yeon

赵泰宽 Jasper Cho

金诗恩 Kim Si-eun

崔宏一 Hong-il Choi

郑义順 Eui-soon Jung

李正贤 Jung-hyu Lee

刘庆秀 Ryoo Kyung-soo

金根英 Geun-Young Kim

金范秀 Beom-Soo Kim

裴贤圣 Bae Hyun Sung

金大涵 Dae-han Kim

洪胜范 Seung-bum Hong

韩多美 Da-mi Han

张世雅 Se-ah Jang

尹胜浩 Seung-ho Yeon

律灿 Yul Chan

李承熙 Seung-hee Lee

金范洙 Kim Bum Soo

◎标 签 韩国 / 驱魔 / 宗教 / 恐怖 / 灵异 / 动作 / 2019 / 奇幻

◎简 介

《阴曹使者》讲述死神来到阳间发生的故事,同时是一部带有超自然元素的惊悚动作片。失去父亲的格斗选手勇厚(朴叙俊 饰)在遇到祭司安神父(安胜基 饰)后,与扰乱世界的邪恶死神展开了决斗。

  1. ##### MediaInfo ######

  2. General

  3. Unique ID : 184725805517794223182930435993984137138 (0x8AF8E56289007C31EC75B2246C2177B2)

  4. Complete name : The.Divine.Fury.2019.1080p.BluRay.DTS.x265-10bit-BATHD.mkv

  5. Format : Matroska

  6. Format version : Version 4

  7. File size : 7.73 GiB

  8. Duration : 2 h 9 min

  9. Overall bit rate : 8 572 kb/s

  10. Movie name : The Divine Fury 2019 1080p BluRay DTS x265-10bit-HDS

  11. Encoded date : UTC 2022-12-07 00:19:29

  12. Writing application : mkvmerge v67.0.0 ('Under Stars') 64-bit

  13. Writing library : libebml v1.4.2 + libmatroska v1.6.4


  14. Video

  15. ID : 1

  16. Format : HEVC

  17. Format/Info : High Efficiency Video Coding

  18. Format profile : Main [email protected]@High

  19. Codec ID : V_MPEGH/ISO/HEVC

  20. Duration : 2 h 9 min

  21. Bit rate : 7 042 kb/s

  22. Width : 1 920 pixels

  23. Height : 804 pixels

  24. Display aspect ratio : 2.40:1

  25. Frame rate mode : Constant

  26. Frame rate : 24.000 FPS

  27. Color space : YUV

  28. Chroma subsampling : 4:2:0

  29. Bit depth : 10 bits

  30. Bits/(Pixel*Frame) : 0.190

  31. Stream size : 6.35 GiB (82%)

  32. Title : [email protected]

  33. Writing library : x265 - H.265/HEVC codec

  34. Default : Yes

  35. Forced : No


  36. Audio

  37. ID : 2

  38. Format : DTS

  39. Format/Info : Digital Theater Systems

  40. Codec ID : A_DTS

  41. Duration : 2 h 9 min

  42. Bit rate mode : Constant

  43. Bit rate : 1 509 kb/s

  44. Channel(s) : 6 channels

  45. Channel layout : C L R Ls Rs LFE

  46. Sampling rate : 48.0 kHz

  47. Frame rate : 93.750 FPS (512 SPF)

  48. Bit depth : 24 bits

  49. Compression mode : Lossy

  50. Stream size : 1.36 GiB (18%)

  51. Title : Korean

  52. Language : Korean

  53. Default : Yes

  54. Forced : No


  55. Text #1

  56. ID : 3

  57. Format : PGS

  58. Muxing mode : zlib

  59. Codec ID : S_HDMV/PGS

  60. Codec ID/Info : Picture based subtitle format used on BDs/HD-DVDs

  61. Duration : 2 h 4 min

  62. Bit rate : 12.7 kb/s

  63. Count of elements : 1692

  64. Stream size : 11.3 MiB (0%)

  65. Title : CHS

  66. Language : Chinese

  67. Default : Yes

  68. Forced : No


  69. Text #2

  70. ID : 4

  71. Format : PGS

  72. Muxing mode : zlib

  73. Codec ID : S_HDMV/PGS

  74. Codec ID/Info : Picture based subtitle format used on BDs/HD-DVDs

  75. Duration : 2 h 4 min

  76. Bit rate : 12.9 kb/s

  77. Count of elements : 1692

  78. Stream size : 11.5 MiB (0%)

  79. Title : CHT

  80. Language : Chinese

  81. Default : Yes

  82. Forced : No


  83. Text #3

  84. ID : 5

  85. Format : PGS

  86. Muxing mode : zlib

  87. Codec ID : S_HDMV/PGS

  88. Codec ID/Info : Picture based subtitle format used on BDs/HD-DVDs

  89. Duration : 2 h 3 min

  90. Bit rate : 16.8 kb/s

  91. Count of elements : 1703

  92. Stream size : 14.8 MiB (0%)

  93. Title : ENG

  94. Language : English

  95. Default : Yes

  96. Forced : No


  97. Menu

  98. 00:00:00.000 : en:第 01 章

  99. 00:12:08.333 : en:第 02 章

  100. 00:21:24.833 : en:第 03 章

  101. 00:34:23.625 : en:第 04 章

  102. 00:41:32.042 : en:第 05 章

  103. 00:51:22.667 : en:第 06 章

  104. 00:59:12.583 : en:第 07 章

  105. 01:13:04.708 : en:第 08 章

  106. 01:23:38.292 : en:第 09 章

  107. 01:34:21.583 : en:第 10 章

  108. 01:46:50.167 : en:第 11 章

  109. 01:55:09.333 : en:第 12 章

  110. 02:03:04.208 : en:第 13 章


复制代码




文件下载


除非特别注明,本文『阴曹使者[简繁英字幕].The.Divine.Fury.2019.1080p.BluRay.DTS.x265-10bit-BATHD 7.73GB』来源于互联网机器人自动抓取,非本站原创。 浮游电影网不对本文拥有版权,如有侵犯,请联系邮箱:fuyouu#yandex.com[#换成@]投诉。我们会在15个工作日内删除。 但烦请转载时请标明出处:“本文转载于『浮游电影网』,原文地址:https://www.fuyouu.com/22898.html

评论吧骚年!

发表你的见解   

昵称*

E-mail*(建议输入,以便收到博主回复的提示邮件)

验证码*

您可以使用eMule或eMule Mod(Windows)、aMule(Win、Linux、Mac)等软件下载eD2k链接。。
eMule收藏集(.emulecollection)文件是您选中的所有链接的列表文件。eMule可以直接下载它们。
按住SHIFT键选择可以选中多个选择框。
可用文件名和大小选择器来选择文件。
文件名选择器帮您根据文件名称或后缀来选择文件。不分大小写。
符号使用:
和:空格( )、+
不包含:-
或:|
转义:一对英文引号("");
匹配开头:^
匹配结尾:$
例如:
选中所有名称中包含有“eMule”或“0.49c”字眼,但不包含有“exe”字眼的:emule|0.49c -exe
选中所有名称的开头是“eMule”,结尾是“0.49c”的:^emule 0.49c$
选中所有名称中带有“eMule 0.49c”的(必须是“eMule 0.49c”,中间没有别的字符,不能是“eMule fake 0.49c”),需要转义:"emule 0.49c"
大小选择器帮您根据文件大小选择文件。