当前位置: 首页 >> 海外电影 >> 锡尔弗顿之围[简繁英字幕].Silverton.Siege.2022.1080p.NF.WEB-DL.DDP5.1.Atmos.HDR.H265-MOMOWEB 4.11GB >> 正文

锡尔弗顿之围[简繁英字幕].Silverton.Siege.2022.1080p.NF.WEB-DL.DDP5.1.Atmos.HDR.H265-MOMOWEB 4.11GB

2022年12月08日 13:35:35     电影发布:来源于网络     电影分类:海外电影     评论(0)    

◎标 题 锡尔弗顿之围

◎译 名 希维顿围城(台) / 南非银行围堵事件(港)

◎片 名 Silverton Siege

◎年 代 2022

◎产 地 南非

◎类 别 剧情 / 动作 / 惊悚 / 犯罪

◎语 言 英语

◎上映日期 2022-04-27(美国)

◎IMDb评分 6.1/10 (2354人评价)

◎IMDb链接 https://www.imdb.com/title/tt18563148/

◎豆瓣评分 7.1/10 (1631人评价)

◎豆瓣链接 https://movie.douban.com/subject/35813554/

◎片 长 100分钟

◎演 员 阿诺德·沃斯洛 Arnold Vosloo

◎简 介

在执行一次破坏加油站的重大任务时,三名 Umkhonto weSizwe (MK) 自由战士意识到他们惨遭陷害,警察已经做好了随时逮捕他们的准备。警察对他们展开了激烈的殊死追捕,他们被迫躲在银行内避难。

这三人一致认为,有人 — 也许他们中的一人 — 是“Impimpi”,即出卖团队的警察间谍。问题是,这个人会是谁?在银行里,他们之间的压力和紧张感越来越强烈。所有参与其中的人都有一个共同点:为自由而战。三人意识到他们唯一的选择是被捕或死亡,他们决定就释放纳尔逊·曼德拉进行谈判。

  1. ##### MediaInfo ######

  2. General

  3. Unique ID : 239283718407481180830839197114458712688 (0xB4045E2B523A778AED5B4D3B67902A70)

  4. Complete name : Silverton.Siege.2022.1080p.NF.WEB-DL.DDP5.1.Atmos.HDR.H265-MOMOWEB.mkv

  5. Format : Matroska

  6. Format version : Version 4

  7. File size : 4.11 GiB

  8. Duration : 1 h 41 min

  9. Overall bit rate : 5 818 kb/s

  10. Movie name : Silverton.Siege.2022.1080p.NF.WEB-DL.DDP5.1.Atmos.HDR.H265-PTerWEB

  11. Encoded date : UTC 2022-12-07 07:24:03

  12. Writing application : mkvmerge v72.0.0 ('Minuano (Six-eight)') 64-bit

  13. Writing library : libebml v1.4.4 + libmatroska v1.7.1


  14. Video

  15. ID : 1

  16. Format : HEVC

  17. Format/Info : High Efficiency Video Coding

  18. Format profile : Main [email protected]@Main

  19. HDR format : SMPTE ST 2086, HDR10 compatible

  20. Codec ID : V_MPEGH/ISO/HEVC

  21. Duration : 1 h 40 min

  22. Bit rate : 5 085 kb/s

  23. Width : 1 920 pixels

  24. Height : 1 080 pixels

  25. Display aspect ratio : 16:9

  26. Frame rate mode : Constant

  27. Frame rate : 24.000 FPS

  28. Color space : YUV

  29. Chroma subsampling : 4:2:0 (Type 2)

  30. Bit depth : 10 bits

  31. Bits/(Pixel*Frame) : 0.102

  32. Stream size : 3.56 GiB (87%)

  33. Default : Yes

  34. Forced : No

  35. Color range : Limited

  36. Color primaries : BT.2020

  37. Transfer characteristics : PQ

  38. Matrix coefficients : BT.2020 non-constant

  39. Mastering display color primaries : Display P3

  40. Mastering display luminance : min: 0.0001 cd/m2, max: 1000 cd/m2

  41. Maximum Content Light Level : 756 cd/m2

  42. Maximum Frame-Average Light Level : 102 cd/m2


  43. Audio

  44. ID : 2

  45. Format : E-AC-3 JOC

  46. Format/Info : Enhanced AC-3 with Joint Object Coding

  47. Commercial name : Dolby Digital Plus with Dolby Atmos

  48. Codec ID : A_EAC3

  49. Duration : 1 h 41 min

  50. Bit rate mode : Constant

  51. Bit rate : 768 kb/s

  52. Channel(s) : 6 channels

  53. Channel layout : L R C LFE Ls Rs

  54. Sampling rate : 48.0 kHz

  55. Frame rate : 31.250 FPS (1536 SPF)

  56. Compression mode : Lossy

  57. Stream size : 555 MiB (13%)

  58. Title : English

  59. Language : English

  60. Service kind : Complete Main

  61. Default : Yes

  62. Forced : No

  63. Complexity index : 16

  64. Number of dynamic objects : 15

  65. Bed channel count : 1 channel

  66. Bed channel configuration : LFE


  67. Text #1

  68. ID : 3

  69. Format : UTF-8

  70. Codec ID : S_TEXT/UTF8

  71. Codec ID/Info : UTF-8 Plain Text

  72. Duration : 1 h 37 min

  73. Bit rate : 85 b/s

  74. Count of elements : 1652

  75. Stream size : 61.3 KiB (0%)

  76. Title : SDH

  77. Language : English

  78. Default : No

  79. Forced : No


  80. Text #2

  81. ID : 4

  82. Format : UTF-8

  83. Codec ID : S_TEXT/UTF8

  84. Codec ID/Info : UTF-8 Plain Text

  85. Duration : 1 h 32 min

  86. Bit rate : 8 b/s

  87. Count of elements : 252

  88. Stream size : 5.90 KiB (0%)

  89. Title : Forced

  90. Language : English

  91. Default : No

  92. Forced : Yes


  93. Text #3

  94. ID : 5

  95. Format : UTF-8

  96. Codec ID : S_TEXT/UTF8

  97. Codec ID/Info : UTF-8 Plain Text

  98. Duration : 1 h 40 min

  99. Bit rate : 84 b/s

  100. Count of elements : 1396

  101. Stream size : 61.9 KiB (0%)

  102. Title : Arabic

  103. Language : Arabic

  104. Default : No

  105. Forced : No


  106. Text #4

  107. ID : 6

  108. Format : UTF-8

  109. Codec ID : S_TEXT/UTF8

  110. Codec ID/Info : UTF-8 Plain Text

  111. Duration : 1 h 40 min

  112. Bit rate : 52 b/s

  113. Count of elements : 1410

  114. Stream size : 38.6 KiB (0%)

  115. Title : 中文(简体)

  116. Language : Chinese

  117. Default : No

  118. Forced : No


  119. Text #5

  120. ID : 7

  121. Format : UTF-8

  122. Codec ID : S_TEXT/UTF8

  123. Codec ID/Info : UTF-8 Plain Text

  124. Duration : 1 h 40 min

  125. Bit rate : 49 b/s

  126. Count of elements : 1419

  127. Stream size : 36.3 KiB (0%)

  128. Title : 中文(繁體)

  129. Language : Chinese

  130. Default : No

  131. Forced : No


  132. Text #6

  133. ID : 8

  134. Format : UTF-8

  135. Codec ID : S_TEXT/UTF8

  136. Codec ID/Info : UTF-8 Plain Text

  137. Duration : 1 h 40 min

  138. Bit rate : 41 b/s

  139. Count of elements : 1410

  140. Stream size : 30.7 KiB (0%)

  141. Title : Croatian

  142. Language : Croatian

  143. Default : No

  144. Forced : No


  145. Text #7

  146. ID : 9

  147. Format : UTF-8

  148. Codec ID : S_TEXT/UTF8

  149. Codec ID/Info : UTF-8 Plain Text

  150. Duration : 1 h 40 min

  151. Bit rate : 46 b/s

  152. Count of elements : 1289

  153. Stream size : 34.4 KiB (0%)

  154. Title : Czech

  155. Language : Czech

  156. Default : No

  157. Forced : No


  158. Text #8

  159. ID : 10

  160. Format : UTF-8

  161. Codec ID : S_TEXT/UTF8

  162. Codec ID/Info : UTF-8 Plain Text

  163. Duration : 1 h 40 min

  164. Bit rate : 46 b/s

  165. Count of elements : 1336

  166. Stream size : 34.3 KiB (0%)

  167. Title : Danish

  168. Language : Danish

  169. Default : No

  170. Forced : No


  171. Text #9

  172. ID : 11

  173. Format : UTF-8

  174. Codec ID : S_TEXT/UTF8

  175. Codec ID/Info : UTF-8 Plain Text

  176. Duration : 1 h 40 min

  177. Bit rate : 47 b/s

  178. Count of elements : 1302

  179. Stream size : 34.5 KiB (0%)

  180. Title : Dutch

  181. Language : Dutch

  182. Default : No

  183. Forced : No


  184. Text #10

  185. ID : 12

  186. Format : UTF-8

  187. Codec ID : S_TEXT/UTF8

  188. Codec ID/Info : UTF-8 Plain Text

  189. Duration : 1 h 40 min

  190. Bit rate : 47 b/s

  191. Count of elements : 1295

  192. Stream size : 34.9 KiB (0%)

  193. Title : Finnish

  194. Language : Finnish

  195. Default : No

  196. Forced : No


  197. Text #11

  198. ID : 13

  199. Format : UTF-8

  200. Codec ID : S_TEXT/UTF8

  201. Codec ID/Info : UTF-8 Plain Text

  202. Duration : 1 h 40 min

  203. Bit rate : 45 b/s

  204. Count of elements : 1247

  205. Stream size : 33.3 KiB (0%)

  206. Title : French

  207. Language : French

  208. Default : No

  209. Forced : No


  210. Text #12

  211. ID : 14

  212. Format : UTF-8

  213. Codec ID : S_TEXT/UTF8

  214. Codec ID/Info : UTF-8 Plain Text

  215. Duration : 1 h 40 min

  216. Bit rate : 47 b/s

  217. Count of elements : 1327

  218. Stream size : 35.1 KiB (0%)

  219. Title : German

  220. Language : German

  221. Default : No

  222. Forced : No


  223. Text #13

  224. ID : 15

  225. Format : UTF-8

  226. Codec ID : S_TEXT/UTF8

  227. Codec ID/Info : UTF-8 Plain Text

  228. Duration : 1 h 40 min

  229. Bit rate : 79 b/s

  230. Count of elements : 1406

  231. Stream size : 58.5 KiB (0%)

  232. Title : Greek

  233. Language : Greek

  234. Default : No

  235. Forced : No


  236. Text #14

  237. ID : 16

  238. Format : UTF-8

  239. Codec ID : S_TEXT/UTF8

  240. Codec ID/Info : UTF-8 Plain Text

  241. Duration : 1 h 40 min

  242. Bit rate : 77 b/s

  243. Count of elements : 1308

  244. Stream size : 56.6 KiB (0%)

  245. Title : Hebrew

  246. Language : Hebrew

  247. Default : No

  248. Forced : No


  249. Text #15

  250. ID : 17

  251. Format : UTF-8

  252. Codec ID : S_TEXT/UTF8

  253. Codec ID/Info : UTF-8 Plain Text

  254. Duration : 1 h 40 min

  255. Bit rate : 46 b/s

  256. Count of elements : 1382

  257. Stream size : 33.8 KiB (0%)

  258. Title : Hungarian

  259. Language : Hungarian

  260. Default : No

  261. Forced : No


  262. Text #16

  263. ID : 18

  264. Format : UTF-8

  265. Codec ID : S_TEXT/UTF8

  266. Codec ID/Info : UTF-8 Plain Text

  267. Duration : 1 h 40 min

  268. Bit rate : 48 b/s

  269. Count of elements : 1383

  270. Stream size : 35.9 KiB (0%)

  271. Title : Indonesian

  272. Language : Indonesian

  273. Default : No

  274. Forced : No


  275. Text #17

  276. ID : 19

  277. Format : UTF-8

  278. Codec ID : S_TEXT/UTF8

  279. Codec ID/Info : UTF-8 Plain Text

  280. Duration : 1 h 40 min

  281. Bit rate : 44 b/s

  282. Count of elements : 1266

  283. Stream size : 32.3 KiB (0%)

  284. Title : Italian

  285. Language : Italian

  286. Default : No

  287. Forced : No


  288. Text #18

  289. ID : 20

  290. Format : UTF-8

  291. Codec ID : S_TEXT/UTF8

  292. Codec ID/Info : UTF-8 Plain Text

  293. Duration : 1 h 40 min

  294. Bit rate : 48 b/s

  295. Count of elements : 1456

  296. Stream size : 35.6 KiB (0%)

  297. Title : Japanese

  298. Language : Japanese

  299. Default : No

  300. Forced : No


  301. Text #19

  302. ID : 21

  303. Format : UTF-8

  304. Codec ID : S_TEXT/UTF8

  305. Codec ID/Info : UTF-8 Plain Text

  306. Duration : 1 h 40 min

  307. Bit rate : 65 b/s

  308. Count of elements : 1470

  309. Stream size : 47.8 KiB (0%)

  310. Title : Korean

  311. Language : Korean

  312. Default : No

  313. Forced : No


  314. Text #20

  315. ID : 22

  316. Format : UTF-8

  317. Codec ID : S_TEXT/UTF8

  318. Codec ID/Info : UTF-8 Plain Text

  319. Duration : 1 h 33 min

  320. Bit rate : 51 b/s

  321. Count of elements : 1412

  322. Stream size : 35.1 KiB (0%)

  323. Title : Malay

  324. Language : Malay

  325. Default : No

  326. Forced : No


  327. Text #21

  328. ID : 23

  329. Format : UTF-8

  330. Codec ID : S_TEXT/UTF8

  331. Codec ID/Info : UTF-8 Plain Text

  332. Duration : 1 h 40 min

  333. Bit rate : 43 b/s

  334. Count of elements : 1100

  335. Stream size : 31.7 KiB (0%)

  336. Title : Norwegian Bokmal

  337. Language : Norwegian Bokmal

  338. Default : No

  339. Forced : No


  340. Text #22

  341. ID : 24

  342. Format : UTF-8

  343. Codec ID : S_TEXT/UTF8

  344. Codec ID/Info : UTF-8 Plain Text

  345. Duration : 1 h 40 min

  346. Bit rate : 42 b/s

  347. Count of elements : 1342

  348. Stream size : 31.3 KiB (0%)

  349. Title : Polish

  350. Language : Polish

  351. Default : No

  352. Forced : No


  353. Text #23

  354. ID : 25

  355. Format : UTF-8

  356. Codec ID : S_TEXT/UTF8

  357. Codec ID/Info : UTF-8 Plain Text

  358. Duration : 1 h 40 min

  359. Bit rate : 47 b/s

  360. Count of elements : 1350

  361. Stream size : 34.4 KiB (0%)

  362. Title : Portuguese

  363. Language : Portuguese

  364. Default : No

  365. Forced : No


  366. Text #24

  367. ID : 26

  368. Format : UTF-8

  369. Codec ID : S_TEXT/UTF8

  370. Codec ID/Info : UTF-8 Plain Text

  371. Duration : 1 h 40 min

  372. Bit rate : 46 b/s

  373. Count of elements : 1341

  374. Stream size : 34.2 KiB (0%)

  375. Title : Brazilian Portuguese

  376. Language : Portuguese

  377. Default : No

  378. Forced : No


  379. Text #25

  380. ID : 27

  381. Format : UTF-8

  382. Codec ID : S_TEXT/UTF8

  383. Codec ID/Info : UTF-8 Plain Text

  384. Duration : 1 h 39 min

  385. Bit rate : 51 b/s

  386. Count of elements : 1171

  387. Stream size : 37.5 KiB (0%)

  388. Title : Romanian

  389. Language : Romanian

  390. Default : No

  391. Forced : No


  392. Text #26

  393. ID : 28

  394. Format : UTF-8

  395. Codec ID : S_TEXT/UTF8

  396. Codec ID/Info : UTF-8 Plain Text

  397. Duration : 1 h 40 min

  398. Bit rate : 79 b/s

  399. Count of elements : 1332

  400. Stream size : 58.0 KiB (0%)

  401. Title : Russian

  402. Language : Russian

  403. Default : No

  404. Forced : No


  405. Text #27

  406. ID : 29

  407. Format : UTF-8

  408. Codec ID : S_TEXT/UTF8

  409. Codec ID/Info : UTF-8 Plain Text

  410. Duration : 1 h 40 min

  411. Bit rate : 47 b/s

  412. Count of elements : 1364

  413. Stream size : 34.8 KiB (0%)

  414. Title : Spanish

  415. Language : Spanish

  416. Default : No

  417. Forced : No


  418. Text #28

  419. ID : 30

  420. Format : UTF-8

  421. Codec ID : S_TEXT/UTF8

  422. Codec ID/Info : UTF-8 Plain Text

  423. Duration : 1 h 40 min

  424. Bit rate : 48 b/s

  425. Count of elements : 1395

  426. Stream size : 35.7 KiB (0%)

  427. Title : European Spanish

  428. Language : Spanish

  429. Default : No

  430. Forced : No


  431. Text #29

  432. ID : 31

  433. Format : UTF-8

  434. Codec ID : S_TEXT/UTF8

  435. Codec ID/Info : UTF-8 Plain Text

  436. Duration : 1 h 40 min

  437. Bit rate : 46 b/s

  438. Count of elements : 1174

  439. Stream size : 34.0 KiB (0%)

  440. Title : Swedish

  441. Language : Swedish

  442. Default : No

  443. Forced : No


  444. Text #30

  445. ID : 32

  446. Format : UTF-8

  447. Codec ID : S_TEXT/UTF8

  448. Codec ID/Info : UTF-8 Plain Text

  449. Duration : 1 h 40 min

  450. Bit rate : 123 b/s

  451. Count of elements : 1408

  452. Stream size : 90.5 KiB (0%)

  453. Title : Thai

  454. Language : Thai

  455. Default : No

  456. Forced : No


  457. Text #31

  458. ID : 33

  459. Format : UTF-8

  460. Codec ID : S_TEXT/UTF8

  461. Codec ID/Info : UTF-8 Plain Text

  462. Duration : 1 h 40 min

  463. Bit rate : 44 b/s

  464. Count of elements : 1381

  465. Stream size : 32.5 KiB (0%)

  466. Title : Turkish

  467. Language : Turkish

  468. Default : No

  469. Forced : No


  470. Text #32

  471. ID : 34

  472. Format : UTF-8

  473. Codec ID : S_TEXT/UTF8

  474. Codec ID/Info : UTF-8 Plain Text

  475. Duration : 1 h 39 min

  476. Bit rate : 73 b/s

  477. Count of elements : 1397

  478. Stream size : 53.8 KiB (0%)

  479. Title : Ukrainian

  480. Language : Ukrainian

  481. Default : No

  482. Forced : No


  483. Text #33

  484. ID : 35

  485. Format : UTF-8

  486. Codec ID : S_TEXT/UTF8

  487. Codec ID/Info : UTF-8 Plain Text

  488. Duration : 1 h 40 min

  489. Bit rate : 70 b/s

  490. Count of elements : 1299

  491. Stream size : 51.5 KiB (0%)

  492. Title : Vietnamese

  493. Language : Vietnamese

  494. Default : No

  495. Forced : No


复制代码




文件下载


除非特别注明,本文『锡尔弗顿之围[简繁英字幕].Silverton.Siege.2022.1080p.NF.WEB-DL.DDP5.1.Atmos.HDR.H265-MOMOWEB 4.11GB』来源于互联网机器人自动抓取,非本站原创。 浮游电影网不对本文拥有版权,如有侵犯,请联系邮箱:fuyouu#yandex.com[#换成@]投诉。我们会在15个工作日内删除。 但烦请转载时请标明出处:“本文转载于『浮游电影网』,原文地址:https://www.fuyouu.com/22897.html

评论吧骚年!

发表你的见解   

昵称*

E-mail*(建议输入,以便收到博主回复的提示邮件)

验证码*

您可以使用eMule或eMule Mod(Windows)、aMule(Win、Linux、Mac)等软件下载eD2k链接。。
eMule收藏集(.emulecollection)文件是您选中的所有链接的列表文件。eMule可以直接下载它们。
按住SHIFT键选择可以选中多个选择框。
可用文件名和大小选择器来选择文件。
文件名选择器帮您根据文件名称或后缀来选择文件。不分大小写。
符号使用:
和:空格( )、+
不包含:-
或:|
转义:一对英文引号("");
匹配开头:^
匹配结尾:$
例如:
选中所有名称中包含有“eMule”或“0.49c”字眼,但不包含有“exe”字眼的:emule|0.49c -exe
选中所有名称的开头是“eMule”,结尾是“0.49c”的:^emule 0.49c$
选中所有名称中带有“eMule 0.49c”的(必须是“eMule 0.49c”,中间没有别的字符,不能是“eMule fake 0.49c”),需要转义:"emule 0.49c"
大小选择器帮您根据文件大小选择文件。