当前位置: 首页 >> 国产电影 >> 农民院士[国语配音/中文字幕].Academician.of.Farmers.2022.2160p.WEB-DL.H265.DDP5.1-NUMTV 9.56GB >> 正文

农民院士[国语配音/中文字幕].Academician.of.Farmers.2022.2160p.WEB-DL.H265.DDP5.1-NUMTV 9.56GB

2022年12月06日 20:50:07     电影发布:来源于网络     电影分类:国产电影     评论(0)    

◎标 题 农民院士

◎年 代 2022

◎产 地 中国大陆

◎类 别 剧情

◎语 言 汉语普通话

◎上映日期 2022-01-09(中国大陆)

◎IMDb链接 https://www.imdb.com/title//

◎豆瓣链接 https://movie.douban.com/subject/35699803/

◎片 长 94分钟

◎导 演 于荣光 Ringo Yu

◎演 员 于荣光 Ringo Yu

王砚辉 Yanhui Wang

高泰宇 Taiyu Gao

马雅舒 Yashu Ma

朱晓渔 Xiaoyu Zhu

杜厚佳 Houjia Du

何杰 Jie He

杨佐玖 Zuojiu Yang

杨晶 Jing Yang

张国强 Guoqiang Zhang

孙楠 Nan Sun

高洋 Yang Gao

◎简 介

全国精准扶贫中,老朱带着自己的科研团队,前往澜沧蒿枝坝扶贫,他深感自己有义务改变蒿枝坝的命运,有责任回报曾经养育自己的农民同胞们。因为各种差异,朱院士及其团队在科技扶贫中遭遇了前所未有的困难。

  1. ##### MediaInfo ######

  2. General

  3. Complete name : 农民院士.Academician.of.Farmers.2022.2160p.WEB-DL.H265.DDP5.1-NUMTV.mp4

  4. Format : MPEG-4

  5. Format profile : Base Media

  6. Codec ID : isom (isom/dby1/iso2/mp41)

  7. File size : 9.56 GiB

  8. Duration : 1 h 28 min

  9. Overall bit rate : 15.4 Mb/s

  10. Writing application : OurTV Multimedia Platform


  11. Video

  12. ID : 1

  13. Format : HEVC

  14. Format/Info : High Efficiency Video Coding

  15. Format profile : [email protected]@Main

  16. Codec ID : hev1

  17. Codec ID/Info : High Efficiency Video Coding

  18. Duration : 1 h 28 min

  19. Source duration : 1 h 28 min

  20. Bit rate : 15.0 Mb/s

  21. Width : 3 840 pixels

  22. Height : 2 160 pixels

  23. Display aspect ratio : 16:9

  24. Frame rate mode : Constant

  25. Frame rate : 25.000 FPS

  26. Color space : YUV

  27. Chroma subsampling : 4:2:0

  28. Bit depth : 8 bits

  29. Bits/(Pixel*Frame) : 0.072

  30. Stream size : 9.32 GiB (97%)

  31. Source stream size : 9.32 GiB (97%)

  32. Color range : Limited

  33. Color primaries : BT.709

  34. Transfer characteristics : BT.709

  35. Matrix coefficients : BT.709

  36. mdhd_Duration : 5326720

  37. Codec configuration box : hvcC


  38. Audio

  39. ID : 2

  40. Format : E-AC-3

  41. Format/Info : Enhanced AC-3

  42. Commercial name : Dolby Digital Plus

  43. Codec ID : ec-3

  44. Duration : 1 h 28 min

  45. Bit rate mode : Constant

  46. Bit rate : 384 kb/s

  47. Channel(s) : 6 channels

  48. Channel layout : L R C LFE Ls Rs

  49. Sampling rate : 48.0 kHz

  50. Frame rate : 31.250 FPS (1536 SPF)

  51. Compression mode : Lossy

  52. Stream size : 244 MiB (2%)

  53. Service kind : Complete Main

  54. Default : Yes

  55. Alternate group : 1


复制代码




文件下载


除非特别注明,本文『农民院士[国语配音/中文字幕].Academician.of.Farmers.2022.2160p.WEB-DL.H265.DDP5.1-NUMTV 9.56GB』来源于互联网机器人自动抓取,非本站原创。 浮游电影网不对本文拥有版权,如有侵犯,请联系邮箱:fuyouu#yandex.com[#换成@]投诉。我们会在15个工作日内删除。 但烦请转载时请标明出处:“本文转载于『浮游电影网』,原文地址:https://www.fuyouu.com/22891.html

评论吧骚年!

发表你的见解   

昵称*

E-mail*(建议输入,以便收到博主回复的提示邮件)

验证码*

您可以使用eMule或eMule Mod(Windows)、aMule(Win、Linux、Mac)等软件下载eD2k链接。。
eMule收藏集(.emulecollection)文件是您选中的所有链接的列表文件。eMule可以直接下载它们。
按住SHIFT键选择可以选中多个选择框。
可用文件名和大小选择器来选择文件。
文件名选择器帮您根据文件名称或后缀来选择文件。不分大小写。
符号使用:
和:空格( )、+
不包含:-
或:|
转义:一对英文引号("");
匹配开头:^
匹配结尾:$
例如:
选中所有名称中包含有“eMule”或“0.49c”字眼,但不包含有“exe”字眼的:emule|0.49c -exe
选中所有名称的开头是“eMule”,结尾是“0.49c”的:^emule 0.49c$
选中所有名称中带有“eMule 0.49c”的(必须是“eMule 0.49c”,中间没有别的字符,不能是“eMule fake 0.49c”),需要转义:"emule 0.49c"
大小选择器帮您根据文件大小选择文件。