当前位置: 首页 >> 海外电影 >> 窒恋[简繁英字幕].No.Limit.2022.1080p.NF.WEB-DL.DDP5.1.x264-MOMOWEB 3.60GB >> 正文

窒恋[简繁英字幕].No.Limit.2022.1080p.NF.WEB-DL.DDP5.1.x264-MOMOWEB 3.60GB

2022年12月05日 19:36:06     电影发布:来源于网络     电影分类:海外电影     评论(0)    

◎标 题 窒恋

◎片 名 Sous Emprise

◎年 代 2022

◎产 地 法国

◎类 别 剧情 / 爱情 / 惊悚

◎语 言 法语

◎上映日期 2022-09-09(法国)

◎IMDb评分 5.4/10 (145人评价)

◎IMDb链接 https://www.imdb.com/title/tt14995258/

◎豆瓣链接 https://movie.douban.com/subject/36071467/

◎片 长 118分钟

◎导 演 大卫·M·罗森索 David M. Rosenthal

◎演 员 卡蜜尔·罗 Camille Rowe

凯撒·东布瓦 César Domboy

◎简 介

罗克萨娜(卡蜜尔·罗饰)遇到了自由跳水世界冠军帕斯卡尔·戈蒂埃(索非昂·泽尔马尼饰),并坠入了爱河。帕斯卡尔引导罗克萨娜进入一项常在死亡边缘徘徊的刺激极限运动,她既是帕斯卡尔的情人,也是学生。从一场比赛到另一场比赛,在世界各地的潜水地点,罗克萨娜开始突破一个又一个极限,完全沉浸在挑战所带来的激情中…但终点又在何处呢?《无限制自由潜水》基于真实事件改编。

  1. ##### MediaInfo ######

  2. General

  3. Unique ID : 80653934648020150066732976037449635940 (0x3CAD61FE56512B96B1A688F782971864)

  4. Complete name : No.Limit.2022.1080p.NF.WEB-DL.DDP5.1.x264-MOMOWEB.mkv

  5. Format : Matroska

  6. Format version : Version 4

  7. File size : 3.60 GiB

  8. Duration : 1 h 58 min

  9. Overall bit rate mode : Variable

  10. Overall bit rate : 4 328 kb/s

  11. Movie name : No.Limit.2022.1080p.NF.WEB-DL.DDP5.1.x264-PTerWEB

  12. Encoded date : UTC 2022-12-04 09:29:16

  13. Writing application : mkvmerge v72.0.0 ('Minuano (Six-eight)') 64-bit

  14. Writing library : libebml v1.4.4 + libmatroska v1.7.1


  15. Video

  16. ID : 1

  17. Format : AVC

  18. Format/Info : Advanced Video Codec

  19. Format profile : [email protected]

  20. Format settings : CABAC / 3 Ref Frames

  21. Format settings, CABAC : Yes

  22. Format settings, Reference frames : 3 frames

  23. Codec ID : V_MPEG4/ISO/AVC

  24. Duration : 1 h 58 min

  25. Bit rate mode : Variable

  26. Bit rate : 3 684 kb/s

  27. Nominal bit rate : 5 800 kb/s

  28. Maximum bit rate : 8 700 kb/s

  29. Width : 1 920 pixels

  30. Height : 1 080 pixels

  31. Display aspect ratio : 16:9

  32. Frame rate mode : Constant

  33. Frame rate : 24.000 FPS

  34. Color space : YUV

  35. Chroma subsampling : 4:2:0

  36. Bit depth : 8 bits

  37. Scan type : Progressive

  38. Bits/(Pixel*Frame) : 0.074

  39. Stream size : 3.06 GiB (85%)

  40. Writing library : x264 core 148 r2727 7d026e8

  41. Encoding settings : cabac=1 / ref=3 / deblock=1:0:0 / analyse=0x1:0x111 / me=umh / subme=10 / psy=1 / psy_rd=1.00:0.00 / mixed_ref=1 / me_range=24 / chroma_me=1 / trellis=2 / 8x8dct=0 / cqm=0 / deadzone=21,11 / fast_pskip=1 / chroma_qp_offset=-2 / threads=8 / lookahead_threads=1 / sliced_threads=0 / nr=0 / decimate=1 / interlaced=0 / NTMzNTQ= / bluray_compat=0 / stitchable=1 / constrained_intra=0 / bframes=2 / b_pyramid=0 / b_adapt=2 / b_bias=0 / direct=3 / weightb=1 / open_gop=0 / weightp=2 / keyint=250 / keyint_min=24 / scenecut=0 / intra_refresh=0 / rc_lookahead=48 / rc=2pass / mbtree=1 / bitrate=5800 / ratetol=1.0 / qcomp=0.50 / qpmin=6 / qpmax=51 / qpstep=4 / cplxblur=20.0 / qblur=0.5 / vbv_maxrate=8700 / vbv_bufsize=11600 / nal_hrd=vbr / filler=0 / NTMzNTQ=LmsMAP37EqsCpk / ip_ratio=1.40 / aq=1:1.00

  42. Default : Yes

  43. Forced : No


  44. Audio

  45. ID : 2

  46. Format : E-AC-3

  47. Format/Info : Enhanced AC-3

  48. Commercial name : Dolby Digital Plus

  49. Codec ID : A_EAC3

  50. Duration : 1 h 58 min

  51. Bit rate mode : Constant

  52. Bit rate : 640 kb/s

  53. Channel(s) : 6 channels

  54. Channel layout : L R C LFE Ls Rs

  55. Sampling rate : 48.0 kHz

  56. Frame rate : 31.250 FPS (1536 SPF)

  57. Compression mode : Lossy

  58. Stream size : 544 MiB (15%)

  59. Title : French

  60. Language : French

  61. Service kind : Complete Main

  62. Default : Yes

  63. Forced : No


  64. Text #1

  65. ID : 3

  66. Format : UTF-8

  67. Codec ID : S_TEXT/UTF8

  68. Codec ID/Info : UTF-8 Plain Text

  69. Duration : 1 h 52 min

  70. Bit rate : 38 b/s

  71. Count of elements : 1003

  72. Stream size : 31.3 KiB (0%)

  73. Title : English

  74. Language : English

  75. Default : No

  76. Forced : No


  77. Text #2

  78. ID : 4

  79. Format : UTF-8

  80. Codec ID : S_TEXT/UTF8

  81. Codec ID/Info : UTF-8 Plain Text

  82. Duration : 1 h 57 min

  83. Bit rate : 67 b/s

  84. Count of elements : 1112

  85. Stream size : 58.1 KiB (0%)

  86. Title : Arabic

  87. Language : Arabic

  88. Default : No

  89. Forced : No


  90. Text #3

  91. ID : 5

  92. Format : UTF-8

  93. Codec ID : S_TEXT/UTF8

  94. Codec ID/Info : UTF-8 Plain Text

  95. Duration : 1 h 57 min

  96. Bit rate : 41 b/s

  97. Count of elements : 1119

  98. Stream size : 35.4 KiB (0%)

  99. Title : 中文(简体)

  100. Language : Chinese

  101. Default : No

  102. Forced : No


  103. Text #4

  104. ID : 6

  105. Format : UTF-8

  106. Codec ID : S_TEXT/UTF8

  107. Codec ID/Info : UTF-8 Plain Text

  108. Duration : 1 h 57 min

  109. Bit rate : 37 b/s

  110. Count of elements : 1108

  111. Stream size : 31.9 KiB (0%)

  112. Title : 中文(繁體)

  113. Language : Chinese

  114. Default : No

  115. Forced : No


  116. Text #5

  117. ID : 7

  118. Format : UTF-8

  119. Codec ID : S_TEXT/UTF8

  120. Codec ID/Info : UTF-8 Plain Text

  121. Duration : 1 h 57 min

  122. Bit rate : 33 b/s

  123. Count of elements : 1076

  124. Stream size : 28.6 KiB (0%)

  125. Title : Croatian

  126. Language : Croatian

  127. Default : No

  128. Forced : No


  129. Text #6

  130. ID : 8

  131. Format : UTF-8

  132. Codec ID : S_TEXT/UTF8

  133. Codec ID/Info : UTF-8 Plain Text

  134. Duration : 1 h 57 min

  135. Bit rate : 35 b/s

  136. Count of elements : 1119

  137. Stream size : 30.9 KiB (0%)

  138. Title : Czech

  139. Language : Czech

  140. Default : No

  141. Forced : No


  142. Text #7

  143. ID : 9

  144. Format : UTF-8

  145. Codec ID : S_TEXT/UTF8

  146. Codec ID/Info : UTF-8 Plain Text

  147. Duration : 1 h 57 min

  148. Bit rate : 35 b/s

  149. Count of elements : 1096

  150. Stream size : 30.9 KiB (0%)

  151. Title : Danish

  152. Language : Danish

  153. Default : No

  154. Forced : No


  155. Text #8

  156. ID : 10

  157. Format : UTF-8

  158. Codec ID : S_TEXT/UTF8

  159. Codec ID/Info : UTF-8 Plain Text

  160. Duration : 1 h 57 min

  161. Bit rate : 33 b/s

  162. Count of elements : 1061

  163. Stream size : 29.1 KiB (0%)

  164. Title : Dutch

  165. Language : Dutch

  166. Default : No

  167. Forced : No


  168. Text #9

  169. ID : 11

  170. Format : UTF-8

  171. Codec ID : S_TEXT/UTF8

  172. Codec ID/Info : UTF-8 Plain Text

  173. Duration : 1 h 57 min

  174. Bit rate : 35 b/s

  175. Count of elements : 943

  176. Stream size : 30.2 KiB (0%)

  177. Title : Finnish

  178. Language : Finnish

  179. Default : No

  180. Forced : No


  181. Text #10

  182. ID : 12

  183. Format : UTF-8

  184. Codec ID : S_TEXT/UTF8

  185. Codec ID/Info : UTF-8 Plain Text

  186. Duration : 1 h 57 min

  187. Bit rate : 64 b/s

  188. Count of elements : 1325

  189. Stream size : 55.6 KiB (0%)

  190. Title : SDH

  191. Language : French

  192. Default : No

  193. Forced : No


  194. Text #11

  195. ID : 13

  196. Format : UTF-8

  197. Codec ID : S_TEXT/UTF8

  198. Codec ID/Info : UTF-8 Plain Text

  199. Duration : 1 h 50 min

  200. Bit rate : 3 b/s

  201. Count of elements : 76

  202. Stream size : 2.52 KiB (0%)

  203. Title : Forced

  204. Language : French

  205. Default : No

  206. Forced : Yes


  207. Text #12

  208. ID : 14

  209. Format : UTF-8

  210. Codec ID : S_TEXT/UTF8

  211. Codec ID/Info : UTF-8 Plain Text

  212. Duration : 1 h 57 min

  213. Bit rate : 34 b/s

  214. Count of elements : 1053

  215. Stream size : 29.9 KiB (0%)

  216. Title : German

  217. Language : German

  218. Default : No

  219. Forced : No


  220. Text #13

  221. ID : 15

  222. Format : UTF-8

  223. Codec ID : S_TEXT/UTF8

  224. Codec ID/Info : UTF-8 Plain Text

  225. Duration : 1 h 57 min

  226. Bit rate : 58 b/s

  227. Count of elements : 1156

  228. Stream size : 50.5 KiB (0%)

  229. Title : Greek

  230. Language : Greek

  231. Default : No

  232. Forced : No


  233. Text #14

  234. ID : 16

  235. Format : UTF-8

  236. Codec ID : S_TEXT/UTF8

  237. Codec ID/Info : UTF-8 Plain Text

  238. Duration : 1 h 57 min

  239. Bit rate : 63 b/s

  240. Count of elements : 1117

  241. Stream size : 54.5 KiB (0%)

  242. Title : Hebrew

  243. Language : Hebrew

  244. Default : No

  245. Forced : No


  246. Text #15

  247. ID : 17

  248. Format : UTF-8

  249. Codec ID : S_TEXT/UTF8

  250. Codec ID/Info : UTF-8 Plain Text

  251. Duration : 1 h 57 min

  252. Bit rate : 33 b/s

  253. Count of elements : 1016

  254. Stream size : 28.8 KiB (0%)

  255. Title : Hungarian

  256. Language : Hungarian

  257. Default : No

  258. Forced : No


  259. Text #16

  260. ID : 18

  261. Format : UTF-8

  262. Codec ID : S_TEXT/UTF8

  263. Codec ID/Info : UTF-8 Plain Text

  264. Duration : 1 h 57 min

  265. Bit rate : 36 b/s

  266. Count of elements : 1118

  267. Stream size : 31.2 KiB (0%)

  268. Title : Indonesian

  269. Language : Indonesian

  270. Default : No

  271. Forced : No


  272. Text #17

  273. ID : 19

  274. Format : UTF-8

  275. Codec ID : S_TEXT/UTF8

  276. Codec ID/Info : UTF-8 Plain Text

  277. Duration : 1 h 57 min

  278. Bit rate : 34 b/s

  279. Count of elements : 1113

  280. Stream size : 29.7 KiB (0%)

  281. Title : Italian

  282. Language : Italian

  283. Default : No

  284. Forced : No


  285. Text #18

  286. ID : 20

  287. Format : UTF-8

  288. Codec ID : S_TEXT/UTF8

  289. Codec ID/Info : UTF-8 Plain Text

  290. Duration : 1 h 57 min

  291. Bit rate : 35 b/s

  292. Count of elements : 1094

  293. Stream size : 30.7 KiB (0%)

  294. Title : Japanese

  295. Language : Japanese

  296. Default : No

  297. Forced : No


  298. Text #19

  299. ID : 21

  300. Format : UTF-8

  301. Codec ID : S_TEXT/UTF8

  302. Codec ID/Info : UTF-8 Plain Text

  303. Duration : 1 h 57 min

  304. Bit rate : 47 b/s

  305. Count of elements : 1146

  306. Stream size : 40.5 KiB (0%)

  307. Title : Korean

  308. Language : Korean

  309. Default : No

  310. Forced : No


  311. Text #20

  312. ID : 22

  313. Format : UTF-8

  314. Codec ID : S_TEXT/UTF8

  315. Codec ID/Info : UTF-8 Plain Text

  316. Duration : 1 h 57 min

  317. Bit rate : 33 b/s

  318. Count of elements : 1095

  319. Stream size : 28.5 KiB (0%)

  320. Title : Malay

  321. Language : Malay

  322. Default : No

  323. Forced : No


  324. Text #21

  325. ID : 23

  326. Format : UTF-8

  327. Codec ID : S_TEXT/UTF8

  328. Codec ID/Info : UTF-8 Plain Text

  329. Duration : 1 h 57 min

  330. Bit rate : 32 b/s

  331. Count of elements : 1044

  332. Stream size : 28.1 KiB (0%)

  333. Title : Norwegian Bokmal

  334. Language : Norwegian Bokmal

  335. Default : No

  336. Forced : No


  337. Text #22

  338. ID : 24

  339. Format : UTF-8

  340. Codec ID : S_TEXT/UTF8

  341. Codec ID/Info : UTF-8 Plain Text

  342. Duration : 1 h 57 min

  343. Bit rate : 34 b/s

  344. Count of elements : 1089

  345. Stream size : 30.1 KiB (0%)

  346. Title : Polish

  347. Language : Polish

  348. Default : No

  349. Forced : No


  350. Text #23

  351. ID : 25

  352. Format : UTF-8

  353. Codec ID : S_TEXT/UTF8

  354. Codec ID/Info : UTF-8 Plain Text

  355. Duration : 1 h 57 min

  356. Bit rate : 35 b/s

  357. Count of elements : 1077

  358. Stream size : 30.8 KiB (0%)

  359. Title : Portuguese

  360. Language : Portuguese

  361. Default : No

  362. Forced : No


  363. Text #24

  364. ID : 26

  365. Format : UTF-8

  366. Codec ID : S_TEXT/UTF8

  367. Codec ID/Info : UTF-8 Plain Text

  368. Duration : 1 h 57 min

  369. Bit rate : 35 b/s

  370. Count of elements : 1124

  371. Stream size : 30.6 KiB (0%)

  372. Title : Brazilian Portuguese

  373. Language : Portuguese

  374. Default : No

  375. Forced : No


  376. Text #25

  377. ID : 27

  378. Format : UTF-8

  379. Codec ID : S_TEXT/UTF8

  380. Codec ID/Info : UTF-8 Plain Text

  381. Duration : 1 h 57 min

  382. Bit rate : 39 b/s

  383. Count of elements : 1112

  384. Stream size : 34.0 KiB (0%)

  385. Title : Romanian

  386. Language : Romanian

  387. Default : No

  388. Forced : No


  389. Text #26

  390. ID : 28

  391. Format : UTF-8

  392. Codec ID : S_TEXT/UTF8

  393. Codec ID/Info : UTF-8 Plain Text

  394. Duration : 1 h 57 min

  395. Bit rate : 59 b/s

  396. Count of elements : 1097

  397. Stream size : 50.8 KiB (0%)

  398. Title : Russian

  399. Language : Russian

  400. Default : No

  401. Forced : No


  402. Text #27

  403. ID : 29

  404. Format : UTF-8

  405. Codec ID : S_TEXT/UTF8

  406. Codec ID/Info : UTF-8 Plain Text

  407. Duration : 1 h 57 min

  408. Bit rate : 36 b/s

  409. Count of elements : 1117

  410. Stream size : 31.7 KiB (0%)

  411. Title : Spanish

  412. Language : Spanish

  413. Default : No

  414. Forced : No


  415. Text #28

  416. ID : 30

  417. Format : UTF-8

  418. Codec ID : S_TEXT/UTF8

  419. Codec ID/Info : UTF-8 Plain Text

  420. Duration : 1 h 57 min

  421. Bit rate : 36 b/s

  422. Count of elements : 1130

  423. Stream size : 31.4 KiB (0%)

  424. Title : European Spanish

  425. Language : Spanish

  426. Default : No

  427. Forced : No


  428. Text #29

  429. ID : 31

  430. Format : UTF-8

  431. Codec ID : S_TEXT/UTF8

  432. Codec ID/Info : UTF-8 Plain Text

  433. Duration : 1 h 57 min

  434. Bit rate : 36 b/s

  435. Count of elements : 1053

  436. Stream size : 31.6 KiB (0%)

  437. Title : Swedish

  438. Language : Swedish

  439. Default : No

  440. Forced : No


  441. Text #30

  442. ID : 32

  443. Format : UTF-8

  444. Codec ID : S_TEXT/UTF8

  445. Codec ID/Info : UTF-8 Plain Text

  446. Duration : 1 h 57 min

  447. Bit rate : 95 b/s

  448. Count of elements : 1289

  449. Stream size : 82.1 KiB (0%)

  450. Title : Thai

  451. Language : Thai

  452. Default : No

  453. Forced : No


  454. Text #31

  455. ID : 33

  456. Format : UTF-8

  457. Codec ID : S_TEXT/UTF8

  458. Codec ID/Info : UTF-8 Plain Text

  459. Duration : 1 h 57 min

  460. Bit rate : 35 b/s

  461. Count of elements : 1087

  462. Stream size : 30.2 KiB (0%)

  463. Title : Turkish

  464. Language : Turkish

  465. Default : No

  466. Forced : No


  467. Text #32

  468. ID : 34

  469. Format : UTF-8

  470. Codec ID : S_TEXT/UTF8

  471. Codec ID/Info : UTF-8 Plain Text

  472. Duration : 1 h 57 min

  473. Bit rate : 58 b/s

  474. Count of elements : 1113

  475. Stream size : 50.5 KiB (0%)

  476. Title : Ukrainian

  477. Language : Ukrainian

  478. Default : No

  479. Forced : No


  480. Text #33

  481. ID : 35

  482. Format : UTF-8

  483. Codec ID : S_TEXT/UTF8

  484. Codec ID/Info : UTF-8 Plain Text

  485. Duration : 1 h 57 min

  486. Bit rate : 49 b/s

  487. Count of elements : 1064

  488. Stream size : 42.9 KiB (0%)

  489. Title : Vietnamese

  490. Language : Vietnamese

  491. Default : No

  492. Forced : No


复制代码




文件下载


除非特别注明,本文『窒恋[简繁英字幕].No.Limit.2022.1080p.NF.WEB-DL.DDP5.1.x264-MOMOWEB 3.60GB』来源于互联网机器人自动抓取,非本站原创。 浮游电影网不对本文拥有版权,如有侵犯,请联系邮箱:fuyouu#yandex.com[#换成@]投诉。我们会在15个工作日内删除。 但烦请转载时请标明出处:“本文转载于『浮游电影网』,原文地址:https://www.fuyouu.com/22890.html

评论吧骚年!

发表你的见解   

昵称*

E-mail*(建议输入,以便收到博主回复的提示邮件)

验证码*

您可以使用eMule或eMule Mod(Windows)、aMule(Win、Linux、Mac)等软件下载eD2k链接。。
eMule收藏集(.emulecollection)文件是您选中的所有链接的列表文件。eMule可以直接下载它们。
按住SHIFT键选择可以选中多个选择框。
可用文件名和大小选择器来选择文件。
文件名选择器帮您根据文件名称或后缀来选择文件。不分大小写。
符号使用:
和:空格( )、+
不包含:-
或:|
转义:一对英文引号("");
匹配开头:^
匹配结尾:$
例如:
选中所有名称中包含有“eMule”或“0.49c”字眼,但不包含有“exe”字眼的:emule|0.49c -exe
选中所有名称的开头是“eMule”,结尾是“0.49c”的:^emule 0.49c$
选中所有名称中带有“eMule 0.49c”的(必须是“eMule 0.49c”,中间没有别的字符,不能是“eMule fake 0.49c”),需要转义:"emule 0.49c"
大小选择器帮您根据文件大小选择文件。