当前位置: 首页 >> 日韩电影 >> 掮客[简繁英字幕].Broker.2022.1080p.BluRay.x265.10bit-CTRLHD 9.02GB >> 正文

掮客[简繁英字幕].Broker.2022.1080p.BluRay.x265.10bit-CTRLHD 9.02GB

2022年12月02日 20:17:02     电影发布:来源于网络     电影分类:日韩电影     评论(0)    

◎标 题 掮客

◎译 名 代理人 / 孩子转运站(港) / 婴儿转运站(台) / 经手人 / 经纪人 / 中间人 / 中介人 / 摇篮 / 요람 / ベイビー・ブローカー / ブローカー / Baby Broker / Baby / Box / Broker / Broker

◎片 名 브로커

◎年 代 2022

◎产 地 韩国

◎类 别 剧情

◎语 言 韩语

◎上映日期 2022-05-26(戛纳电影节) / 2022-06-08(韩国)

◎IMDb链接 https://www.imdb.com/title/tt13056052/

◎豆瓣链接 https://movie.douban.com/subject/35192111/

◎片 长 126分钟

◎导 演 是枝裕和 Hirokazu Koreeda

◎编 剧 是枝裕和 Hirokazu Koreeda

◎演 员 宋康昊 Kang-ho Song

姜栋元 Dong-won Kang

裴斗娜 Doona Bae

李知恩 IU

李珠英 Joo-young Lee

白贤镇 Hyeon-jin Baek

金艺恩 Ye-eun Kim

宋清晨 Sae-byeok Song

李美敬 Miky Lee

郑在日 Jae-il Jung

洪坰杓 Kyung-Pyo Hong

是枝裕和 Hirokazu Koreeda

◎简 介

尚贤(宋康昊 饰)经营洗衣店,可惜生意淡静更负债累累。好兄弟东洙(姜栋元 饰)本身是孤儿,为“婴儿暂存箱”机构工作。在一个雨夜,他们竟秘密带走其中一个箱里的男婴。翌日,年轻的母亲素英(李知恩 饰)却找上门要求领回自己的孩子雨盛!本想报警揭发,但素英最终竟同意让两个“中间人”为儿子寻觅更好的父母,并决定跟随两人同行。另一边厢,刑警秀珍(裴斗娜 饰)联同后辈李刑警(李珠英 饰)原来一直跟踪着他们,暗中收集证据,决心拉人定案!剧情由暂存箱里的婴儿引发,牵连周遭5个关键人物,展开一段意想不到的独特旅程,触动最微妙的世故人情。

  1. ##### MediaInfo ######

  2. General

  3. Unique ID : 162445309936698239295495738964479035732 (0x7A35D423EDDC7B9E8965AF9164B3C954)

  4. Complete name : Broker.2022.1080p.BluRay.x265.10bit-TAGHD.mkv

  5. Format : Matroska

  6. Format version : Version 4

  7. File size : 9.01 GiB

  8. Duration : 2 h 9 min

  9. Overall bit rate : 9 977 kb/s

  10. Encoded date : UTC 2022-12-01 10:57:50

  11. Writing application : mkvmerge v70.0.0 ('Caught A Lite Sneeze') 64-bit

  12. Writing library : libebml v1.4.2 + libmatroska v1.6.4

  13. Attachments : MSYH.TTF / MSYH_chscht.ttf / MSYHBD.TTF / tahoma.ttf


  14. Video

  15. ID : 1

  16. Format : HEVC

  17. Format/Info : High Efficiency Video Coding

  18. Format profile : Main [email protected]@Main

  19. Codec ID : V_MPEGH/ISO/HEVC

  20. Duration : 2 h 9 min

  21. Bit rate : 9 264 kb/s

  22. Width : 1 920 pixels

  23. Height : 1 036 pixels

  24. Display aspect ratio : 1.85:1

  25. Frame rate mode : Constant

  26. Frame rate : 23.976 (24000/1001/53354) FPS

  27. Color space : YUV

  28. Chroma subsampling : 4:2:0

  29. Bit depth : 10 bits

  30. Bits/(Pixel*Frame) : 0.194

  31. Stream size : 8.37 GiB (93%)

  32. Default : Yes

  33. Forced : No


  34. Audio

  35. ID : 2

  36. Format : AC-3

  37. Format/Info : Audio Coding 3

  38. Commercial name : Dolby Digital

  39. Codec ID : A_AC3

  40. Duration : 2 h 9 min

  41. Bit rate mode : Constant

  42. Bit rate : 640 kb/s

  43. Channel(s) : 6 channels

  44. Channel layout : L R C LFE Ls Rs

  45. Sampling rate : 48.0 kHz

  46. Frame rate : 31.250 FPS (1536 SPF)

  47. Compression mode : Lossy

  48. Stream size : 592 MiB (6%)

  49. Title : Korean

  50. Language : Korean

  51. Service kind : Complete Main

  52. Default : Yes

  53. Forced : No


  54. Text #1

  55. ID : 3

  56. Format : ASS

  57. Codec ID : S_TEXT/ASS

  58. Codec ID/Info : Advanced Sub Station Alpha

  59. Duration : 2 h 1 min

  60. Bit rate : 170 b/s

  61. Count of elements : 1633

  62. Compression mode : Lossless

  63. Stream size : 152 KiB (0%)

  64. Title : Chs_TW

  65. Language : Chinese

  66. Default : Yes

  67. Forced : No


  68. Text #2

  69. ID : 4

  70. Format : PGS

  71. Muxing mode : zlib

  72. Codec ID : S_HDMV/PGS

  73. Codec ID/Info : Picture based subtitle format used on BDs/HD-DVDs

  74. Duration : 2 h 1 min

  75. Bit rate : 27.8 kb/s

  76. Count of elements : 2984

  77. Stream size : 24.1 MiB (0%)

  78. Title : Cht_HK

  79. Language : Chinese

  80. Default : No

  81. Forced : No


  82. Text #3

  83. ID : 5

  84. Format : PGS

  85. Muxing mode : zlib

  86. Codec ID : S_HDMV/PGS

  87. Codec ID/Info : Picture based subtitle format used on BDs/HD-DVDs

  88. Duration : 2 h 1 min

  89. Bit rate : 34.7 kb/s

  90. Count of elements : 2980

  91. Stream size : 30.1 MiB (0%)

  92. Title : eng

  93. Language : English

  94. Default : No

  95. Forced : No


复制代码




文件下载


除非特别注明,本文『掮客[简繁英字幕].Broker.2022.1080p.BluRay.x265.10bit-CTRLHD 9.02GB』来源于互联网机器人自动抓取,非本站原创。 浮游电影网不对本文拥有版权,如有侵犯,请联系邮箱:fuyouu#yandex.com[#换成@]投诉。我们会在15个工作日内删除。 但烦请转载时请标明出处:“本文转载于『浮游电影网』,原文地址:https://www.fuyouu.com/22888.html

评论吧骚年!

发表你的见解   

昵称*

E-mail*(建议输入,以便收到博主回复的提示邮件)

验证码*

您可以使用eMule或eMule Mod(Windows)、aMule(Win、Linux、Mac)等软件下载eD2k链接。。
eMule收藏集(.emulecollection)文件是您选中的所有链接的列表文件。eMule可以直接下载它们。
按住SHIFT键选择可以选中多个选择框。
可用文件名和大小选择器来选择文件。
文件名选择器帮您根据文件名称或后缀来选择文件。不分大小写。
符号使用:
和:空格( )、+
不包含:-
或:|
转义:一对英文引号("");
匹配开头:^
匹配结尾:$
例如:
选中所有名称中包含有“eMule”或“0.49c”字眼,但不包含有“exe”字眼的:emule|0.49c -exe
选中所有名称的开头是“eMule”,结尾是“0.49c”的:^emule 0.49c$
选中所有名称中带有“eMule 0.49c”的(必须是“eMule 0.49c”,中间没有别的字符,不能是“eMule fake 0.49c”),需要转义:"emule 0.49c"
大小选择器帮您根据文件大小选择文件。