当前位置: 首页 >> 欧美电影 >> 木乃伊历险记2[简繁英字幕].Under.Wraps.2.2022.1080p.DSNP.WEB-DL.H264.DDP5.1-TAGWEB 3.87GB >> 正文

木乃伊历险记2[简繁英字幕].Under.Wraps.2.2022.1080p.DSNP.WEB-DL.H264.DDP5.1-TAGWEB 3.87GB

2022年12月02日 20:16:26     电影发布:来源于网络     电影分类:欧美电影     评论(0)    

◎标 题 木乃伊历险记2

◎片 名 Under Wraps 2

◎年 代 2022

◎产 地 美国

◎类 别 家庭 / 奇幻

◎语 言 英语

◎上映日期 2022-10-07(新加坡)

◎IMDb评分 6.5/10 (94人评价)

◎IMDb链接 https://www.imdb.com/title/tt18070050/

◎豆瓣链接 https://movie.douban.com/subject/36104070/

◎导 演 亚历克斯·扎姆 Alex Zamm

◎编 剧 Josh A. Cagan Josh A. Cagan

◎演 员 亚当·维利 Adam Wylie

T.J. Storm T.J. Storm

◎简 介

While Amy is preparing for her father's Halloween-themed wedding, she, Gilbert and Marshall discover that Harold and Rose may be in danger. An evil mummy is unexpectedly awakened and out for revenge.

  1. ##### MediaInfo ######

  2. General

  3. Unique ID : 282568396910868351508640958067310187944 (0xD494B195FBBB22D01DDADD2559C1D5A8)

  4. Complete name : Under.Wraps.2.2022.1080p.DSNP.WEB-DL.H264.DDP5.1-TAGWEB.mkv

  5. Format : Matroska

  6. Format version : Version 4

  7. File size : 3.86 GiB

  8. Duration : 1 h 22 min

  9. Overall bit rate mode : Variable

  10. Overall bit rate : 6 673 kb/s

  11. Encoded date : UTC 2022-11-30 16:13:15

  12. Writing application : mkvmerge v72.0.0 ('Minuano (Six-eight)') 64-bit

  13. Writing library : libebml v1.4.4 + libmatroska v1.7.1


  14. Video

  15. ID : 1

  16. Format : AVC

  17. Format/Info : Advanced Video Codec

  18. Format profile : [email protected]

  19. Format settings : CABAC / 4 Ref Frames

  20. Format settings, CABAC : Yes

  21. Format settings, Reference frames : 4 frames

  22. Codec ID : V_MPEG4/ISO/AVC

  23. Duration : 1 h 22 min

  24. Bit rate mode : Variable

  25. Bit rate : 6 412 kb/s

  26. Maximum bit rate : 12.7 Mb/s

  27. Width : 1 920 pixels

  28. Height : 1 080 pixels

  29. Display aspect ratio : 16:9

  30. Frame rate mode : Constant

  31. Frame rate : 23.976 (24000/1001/53354) FPS

  32. Color space : YUV

  33. Chroma subsampling : 4:2:0

  34. Bit depth : 8 bits

  35. Scan type : Progressive

  36. Bits/(Pixel*Frame) : 0.129

  37. Stream size : 3.71 GiB (96%)

  38. Language : English

  39. Default : Yes

  40. Forced : No

  41. Color range : Limited

  42. Color primaries : BT.709

  43. Transfer characteristics : BT.709

  44. Matrix coefficients : BT.709


  45. Audio

  46. ID : 2

  47. Format : E-AC-3

  48. Format/Info : Enhanced AC-3

  49. Commercial name : Dolby Digital Plus

  50. Codec ID : A_EAC3

  51. Duration : 1 h 22 min

  52. Bit rate mode : Constant

  53. Bit rate : 256 kb/s

  54. Channel(s) : 6 channels

  55. Channel layout : L R C LFE Ls Rs

  56. Sampling rate : 48.0 kHz

  57. Frame rate : 31.250 FPS (1536 SPF)

  58. Compression mode : Lossy

  59. Stream size : 152 MiB (4%)

  60. Title : English

  61. Language : English

  62. Service kind : Complete Main

  63. Default : Yes

  64. Forced : No


  65. Text #1

  66. ID : 3

  67. Format : UTF-8

  68. Codec ID : S_TEXT/UTF8

  69. Codec ID/Info : UTF-8 Plain Text

  70. Duration : 1 h 22 min

  71. Bit rate : 58 b/s

  72. Count of elements : 1131

  73. Stream size : 35.5 KiB (0%)

  74. Title : 中文 (简体)

  75. Language : Chinese

  76. Default : Yes

  77. Forced : No


  78. Text #2

  79. ID : 4

  80. Format : UTF-8

  81. Codec ID : S_TEXT/UTF8

  82. Codec ID/Info : UTF-8 Plain Text

  83. Duration : 1 h 22 min

  84. Bit rate : 51 b/s

  85. Count of elements : 1136

  86. Stream size : 31.3 KiB (0%)

  87. Title : 中文 (繁體,中國香港特別行政區)

  88. Language : Chinese

  89. Default : No

  90. Forced : No


  91. Text #3

  92. ID : 5

  93. Format : UTF-8

  94. Codec ID : S_TEXT/UTF8

  95. Codec ID/Info : UTF-8 Plain Text

  96. Duration : 1 h 22 min

  97. Bit rate : 58 b/s

  98. Count of elements : 1131

  99. Stream size : 35.5 KiB (0%)

  100. Title : 中文 (繁體)

  101. Language : Chinese

  102. Default : No

  103. Forced : No


  104. Text #4

  105. ID : 6

  106. Format : UTF-8

  107. Codec ID : S_TEXT/UTF8

  108. Codec ID/Info : UTF-8 Plain Text

  109. Duration : 1 h 22 min

  110. Bit rate : 83 b/s

  111. Count of elements : 1566

  112. Stream size : 50.8 KiB (0%)

  113. Title : English

  114. Language : English

  115. Default : No

  116. Forced : No


  117. Text #5

  118. ID : 7

  119. Format : UTF-8

  120. Codec ID : S_TEXT/UTF8

  121. Codec ID/Info : UTF-8 Plain Text

  122. Duration : 1 h 22 min

  123. Bit rate : 53 b/s

  124. Count of elements : 950

  125. Stream size : 32.0 KiB (0%)

  126. Title : dansk

  127. Language : Danish

  128. Default : No

  129. Forced : No


  130. Text #6

  131. ID : 8

  132. Format : UTF-8

  133. Codec ID : S_TEXT/UTF8

  134. Codec ID/Info : UTF-8 Plain Text

  135. Duration : 1 h 22 min

  136. Bit rate : 62 b/s

  137. Count of elements : 968

  138. Stream size : 38.0 KiB (0%)

  139. Title : Deutsch

  140. Language : German

  141. Default : No

  142. Forced : No


  143. Text #7

  144. ID : 9

  145. Format : UTF-8

  146. Codec ID : S_TEXT/UTF8

  147. Codec ID/Info : UTF-8 Plain Text

  148. Duration : 1 h 22 min

  149. Bit rate : 99 b/s

  150. Count of elements : 992

  151. Stream size : 60.0 KiB (0%)

  152. Title : Ελληνικ?

  153. Language : Greek

  154. Default : No

  155. Forced : No


  156. Text #8

  157. ID : 10

  158. Format : UTF-8

  159. Codec ID : S_TEXT/UTF8

  160. Codec ID/Info : UTF-8 Plain Text

  161. Duration : 1 h 22 min

  162. Bit rate : 63 b/s

  163. Count of elements : 1391

  164. Stream size : 38.0 KiB (0%)

  165. Title : espa?ol (Latinoamérica)

  166. Language : Spanish

  167. Default : No

  168. Forced : No


  169. Text #9

  170. ID : 11

  171. Format : UTF-8

  172. Codec ID : S_TEXT/UTF8

  173. Codec ID/Info : UTF-8 Plain Text

  174. Duration : 1 h 22 min

  175. Bit rate : 53 b/s

  176. Count of elements : 984

  177. Stream size : 32.0 KiB (0%)

  178. Title : espa?ol (Espa?a)

  179. Language : Spanish

  180. Default : No

  181. Forced : No


  182. Text #10

  183. ID : 12

  184. Format : UTF-8

  185. Codec ID : S_TEXT/UTF8

  186. Codec ID/Info : UTF-8 Plain Text

  187. Duration : 1 h 22 min

  188. Bit rate : 54 b/s

  189. Count of elements : 963

  190. Stream size : 32.6 KiB (0%)

  191. Title : suomi

  192. Language : Finnish

  193. Default : No

  194. Forced : No


  195. Text #11

  196. ID : 13

  197. Format : UTF-8

  198. Codec ID : S_TEXT/UTF8

  199. Codec ID/Info : UTF-8 Plain Text

  200. Duration : 1 h 22 min

  201. Bit rate : 53 b/s

  202. Count of elements : 957

  203. Stream size : 32.2 KiB (0%)

  204. Title : italiano

  205. Language : Italian

  206. Default : No

  207. Forced : No


  208. Text #12

  209. ID : 14

  210. Format : UTF-8

  211. Codec ID : S_TEXT/UTF8

  212. Codec ID/Info : UTF-8 Plain Text

  213. Duration : 1 h 22 min

  214. Bit rate : 51 b/s

  215. Count of elements : 1133

  216. Stream size : 31.4 KiB (0%)

  217. Title : 日本

  218. Language : Japanese

  219. Default : No

  220. Forced : No


  221. Text #13

  222. ID : 15

  223. Format : UTF-8

  224. Codec ID : S_TEXT/UTF8

  225. Codec ID/Info : UTF-8 Plain Text

  226. Duration : 1 h 22 min

  227. Bit rate : 64 b/s

  228. Count of elements : 1137

  229. Stream size : 38.9 KiB (0%)

  230. Title : ???

  231. Language : Korean

  232. Default : No

  233. Forced : No


  234. Text #14

  235. ID : 16

  236. Format : UTF-8

  237. Codec ID : S_TEXT/UTF8

  238. Codec ID/Info : UTF-8 Plain Text

  239. Duration : 1 h 22 min

  240. Bit rate : 51 b/s

  241. Count of elements : 931

  242. Stream size : 31.0 KiB (0%)

  243. Title : norsk bokm?l

  244. Language : Norwegian Bokmal

  245. Default : No

  246. Forced : No


  247. Text #15

  248. ID : 17

  249. Format : UTF-8

  250. Codec ID : S_TEXT/UTF8

  251. Codec ID/Info : UTF-8 Plain Text

  252. Duration : 1 h 22 min

  253. Bit rate : 52 b/s

  254. Count of elements : 1068

  255. Stream size : 31.9 KiB (0%)

  256. Title : Nederlands

  257. Language : Dutch

  258. Default : No

  259. Forced : No


  260. Text #16

  261. ID : 18

  262. Format : UTF-8

  263. Codec ID : S_TEXT/UTF8

  264. Codec ID/Info : UTF-8 Plain Text

  265. Duration : 1 h 22 min

  266. Bit rate : 50 b/s

  267. Count of elements : 969

  268. Stream size : 30.4 KiB (0%)

  269. Title : polski

  270. Language : Polish

  271. Default : No

  272. Forced : No


  273. Text #17

  274. ID : 19

  275. Format : UTF-8

  276. Codec ID : S_TEXT/UTF8

  277. Codec ID/Info : UTF-8 Plain Text

  278. Duration : 1 h 22 min

  279. Bit rate : 64 b/s

  280. Count of elements : 1287

  281. Stream size : 39.0 KiB (0%)

  282. Title : português (Brasil)

  283. Language : Portuguese

  284. Default : No

  285. Forced : No


  286. Text #18

  287. ID : 20

  288. Format : UTF-8

  289. Codec ID : S_TEXT/UTF8

  290. Codec ID/Info : UTF-8 Plain Text

  291. Duration : 1 h 22 min

  292. Bit rate : 56 b/s

  293. Count of elements : 996

  294. Stream size : 34.1 KiB (0%)

  295. Title : português (Portugal)

  296. Language : Portuguese

  297. Default : No

  298. Forced : No


  299. Text #19

  300. ID : 21

  301. Format : UTF-8

  302. Codec ID : S_TEXT/UTF8

  303. Codec ID/Info : UTF-8 Plain Text

  304. Duration : 1 h 22 min

  305. Bit rate : 54 b/s

  306. Count of elements : 897

  307. Stream size : 33.2 KiB (0%)

  308. Title : roman?

  309. Language : Romanian

  310. Default : No

  311. Forced : No


  312. Text #20

  313. ID : 22

  314. Format : UTF-8

  315. Codec ID : S_TEXT/UTF8

  316. Codec ID/Info : UTF-8 Plain Text

  317. Duration : 1 h 22 min

  318. Bit rate : 54 b/s

  319. Count of elements : 958

  320. Stream size : 32.8 KiB (0%)

  321. Title : svenska

  322. Language : Swedish

  323. Default : No

  324. Forced : No


  325. Text #21

  326. ID : 23

  327. Format : UTF-8

  328. Codec ID : S_TEXT/UTF8

  329. Codec ID/Info : UTF-8 Plain Text

  330. Duration : 1 h 22 min

  331. Bit rate : 59 b/s

  332. Count of elements : 999

  333. Stream size : 36.2 KiB (0%)

  334. Title : Türk?e

  335. Language : Turkish

  336. Default : No

  337. Forced : No


  338. Menu

  339. 00:00:01.001 : en:Recap

  340. 00:01:00.060 : en:Scene 1

  341. 01:22:28.240 : en:Credits


复制代码





文件下载


除非特别注明,本文『木乃伊历险记2[简繁英字幕].Under.Wraps.2.2022.1080p.DSNP.WEB-DL.H264.DDP5.1-TAGWEB 3.87GB』来源于互联网机器人自动抓取,非本站原创。 浮游电影网不对本文拥有版权,如有侵犯,请联系邮箱:fuyouu#yandex.com[#换成@]投诉。我们会在15个工作日内删除。 但烦请转载时请标明出处:“本文转载于『浮游电影网』,原文地址:https://www.fuyouu.com/22887.html

评论吧骚年!

发表你的见解   

昵称*

E-mail*(建议输入,以便收到博主回复的提示邮件)

验证码*

您可以使用eMule或eMule Mod(Windows)、aMule(Win、Linux、Mac)等软件下载eD2k链接。。
eMule收藏集(.emulecollection)文件是您选中的所有链接的列表文件。eMule可以直接下载它们。
按住SHIFT键选择可以选中多个选择框。
可用文件名和大小选择器来选择文件。
文件名选择器帮您根据文件名称或后缀来选择文件。不分大小写。
符号使用:
和:空格( )、+
不包含:-
或:|
转义:一对英文引号("");
匹配开头:^
匹配结尾:$
例如:
选中所有名称中包含有“eMule”或“0.49c”字眼,但不包含有“exe”字眼的:emule|0.49c -exe
选中所有名称的开头是“eMule”,结尾是“0.49c”的:^emule 0.49c$
选中所有名称中带有“eMule 0.49c”的(必须是“eMule 0.49c”,中间没有别的字符,不能是“eMule fake 0.49c”),需要转义:"emule 0.49c"
大小选择器帮您根据文件大小选择文件。