当前位置: 首页 >> 欧美电影 >> 福尔摩斯小姐2[中文字幕].Enola.Holmes.2.2022.2160p.WEB-DL.H265.AAC-TAGWEB 2.20GB >> 正文

福尔摩斯小姐2[中文字幕].Enola.Holmes.2.2022.2160p.WEB-DL.H265.AAC-TAGWEB 2.20GB

2022年12月02日 20:15:38     电影发布:来源于网络     电影分类:欧美电影     评论(0)    

◎标 题 福尔摩斯小姐2

◎译 名 天才少女福尔摩斯2

◎片 名 Enola Holmes 2

◎年 代 2022

◎产 地 英国 / 美国

◎类 别 剧情 / 动作 / 悬疑 / 犯罪 / 冒险

◎语 言 英语

◎上映日期 2022-11-04(美国网络)

◎IMDb评分 6.8/10 (249人评价)

◎IMDb链接 https://www.imdb.com/title/tt14641788/

◎豆瓣链接 https://movie.douban.com/subject/35461749/

◎片 长 129分钟

◎导 演 哈利·布拉德比尔 Harry Bradbeer

◎编 剧 杰克·索恩 Jack Thorne

哈利·布拉德比尔 Harry Bradbeer

南茜·斯普林格 Nancy Springer

◎演 员 米莉·波比·布朗 Millie Bobby Brown

亨利·卡维尔 Henry Cavill

海伦娜·伯翰·卡特 Helena Bonham Carter

大卫·休里斯 David Thewlis

路易斯·帕特里奇 Louis Partridge

苏珊·沃卡曼 Susan Wokoma

阿迪勒·阿赫塔尔 Adeel Akhtar

莎伦·邓肯-布鲁斯特 Sharon Duncan-Brewster

汉娜·多德 Hannah Dodd

大卫·维斯特海德 David Westhead

蕾切尔·郭 Rachel Kwok

克洛伊·布耶斯 Chloé Booyens

艾比·赫恩 Abbie Hern

瑟拉娜·苏玲·布利斯 Serrana Su-Ling Bliss

拉姆赞·米亚 Ramzan Miah

皮埃尔·伯格曼 Pierre Bergman

罗伊辛·莫纳汉 Róisín Monaghan

加布里埃尔·蒂尔尼 Gabriel Tierney

菲利普·加斯科因 Philip Gascoyne

海伦·斯特灵-洛那 Helen Stirling-Lane

马汀·麦格 Martyn Mayger

伊丽莎白·希尔 伊丽莎白·希尔

詹姆斯·伯克里 James Berkery

卡里什马·纳维卡 Karishma Navekar

Alison Martin Jones

索莱塔·博伊尔 Consolata Boyle

◎简 介

大胆去闯,就是福尔摩斯精神。

初尝破案滋味的艾诺拉·福尔摩斯(米莉·波比·布朗 Millie Bobby Brown 饰)意犹未尽,决定追随哥哥、名侦探夏洛克·福尔摩斯(亨利·卡维尔 Henry Cavill 饰)的步伐,设立自己的侦探社。她万万想不到,原来女侦探生意这么难做。她无可奈何地接受成人世 界的冷酷现实,打算关门大吉之际,身无分文的卖火柴女孩却找上门来。艾诺拉终于接到第一宗生意,受托为女孩寻回失散的姊妹。然而,这案件比她想像中复杂得多,艾诺拉更因此走进陌生之地,陷入险境。她去过伦敦阴森诡秘的工厂和绚丽堂皇的音乐厅,混入顶尖上流社会,甚至回到贝克街221B。艾诺拉意识到一场流血阴谋将要爆发,不得不急召朋友和哥哥夏洛克帮忙,助她脱离困局。这场侦探游戏又再刺激起来!

  1. ##### MediaInfo ######

  2. General

  3. Complete name : Enola.Holmes.2.2022.2160p.WEB-DL.H265.AAC-TAGWEB.mp4

  4. Format : MPEG-4

  5. Format profile : Base Media

  6. Codec ID : isom (isom/iso2/mp41)

  7. File size : 2.19 GiB

  8. Duration : 2 h 8 min

  9. Overall bit rate : 2 440 kb/s

  10. Writing application : Lavf58.32.104


  11. Video

  12. ID : 1

  13. Format : HEVC

  14. Format/Info : High Efficiency Video Coding

  15. Format profile : [email protected]@Main

  16. Codec ID : hev1

  17. Codec ID/Info : High Efficiency Video Coding

  18. Duration : 2 h 8 min

  19. Bit rate : 2 244 kb/s

  20. Width : 3 840 pixels

  21. Height : 1 620 pixels

  22. Display aspect ratio : 2.40:1

  23. Frame rate mode : Constant

  24. Frame rate : 24.000 FPS

  25. Color space : YUV

  26. Chroma subsampling : 4:2:0

  27. Bit depth : 8 bits

  28. Bits/(Pixel*Frame) : 0.015

  29. Stream size : 2.02 GiB (92%)

  30. Color range : Limited

  31. Color primaries : BT.709

  32. Transfer characteristics : BT.709

  33. Matrix coefficients : BT.709

  34. Codec configuration box : hvcC


  35. Audio

  36. ID : 2

  37. Format : AAC LC

  38. Format/Info : Advanced Audio Codec Low Complexity

  39. Codec ID : mp4a-40-2

  40. Duration : 2 h 8 min

  41. Bit rate mode : Constant

  42. Bit rate : 192 kb/s

  43. Channel(s) : 2 channels

  44. Channel layout : L R

  45. Sampling rate : 44.1 kHz

  46. Frame rate : 43.066 FPS (1024 SPF)

  47. Compression mode : Lossy

  48. Stream size : 175 MiB (8%)

  49. Default : Yes

  50. Alternate group : 1


复制代码




文件下载


除非特别注明,本文『福尔摩斯小姐2[中文字幕].Enola.Holmes.2.2022.2160p.WEB-DL.H265.AAC-TAGWEB 2.20GB』来源于互联网机器人自动抓取,非本站原创。 浮游电影网不对本文拥有版权,如有侵犯,请联系邮箱:fuyouu#yandex.com[#换成@]投诉。我们会在15个工作日内删除。 但烦请转载时请标明出处:“本文转载于『浮游电影网』,原文地址:https://www.fuyouu.com/22886.html

评论吧骚年!

发表你的见解   

昵称*

E-mail*(建议输入,以便收到博主回复的提示邮件)

验证码*

您可以使用eMule或eMule Mod(Windows)、aMule(Win、Linux、Mac)等软件下载eD2k链接。。
eMule收藏集(.emulecollection)文件是您选中的所有链接的列表文件。eMule可以直接下载它们。
按住SHIFT键选择可以选中多个选择框。
可用文件名和大小选择器来选择文件。
文件名选择器帮您根据文件名称或后缀来选择文件。不分大小写。
符号使用:
和:空格( )、+
不包含:-
或:|
转义:一对英文引号("");
匹配开头:^
匹配结尾:$
例如:
选中所有名称中包含有“eMule”或“0.49c”字眼,但不包含有“exe”字眼的:emule|0.49c -exe
选中所有名称的开头是“eMule”,结尾是“0.49c”的:^emule 0.49c$
选中所有名称中带有“eMule 0.49c”的(必须是“eMule 0.49c”,中间没有别的字符,不能是“eMule fake 0.49c”),需要转义:"emule 0.49c"
大小选择器帮您根据文件大小选择文件。