当前位置: 首页 >> 国产电影 >> 明日战记[国语配音/中文字幕].Warriors.of.Future.2022.1080p.WEB-DL.H264.AAC.2Audio-NUMTV 4.99GB >> 正文

明日战记[国语配音/中文字幕].Warriors.of.Future.2022.1080p.WEB-DL.H264.AAC.2Audio-NUMTV 4.99GB

2022年12月01日 10:19:31     电影发布:来源于网络     电影分类:国产电影     评论(0)    

◎标 题 明日战记

◎译 名 矛盾战争 / Warriors of Future

◎片 名 明日戰記

◎年 代 2022

◎产 地 中国香港 / 中国大陆

◎类 别 动作 / 科幻

◎语 言 汉语普通话 / 粤语

◎上映日期 2022-08-05(中国大陆) / 2022-08-25(中国香港)

◎IMDb评分 6.4/10 (554人评价)

◎IMDb链接 https://www.imdb.com/title/tt7375466/

◎豆瓣评分 6.4/10 (95202人评价)

◎豆瓣链接 https://movie.douban.com/subject/26353671/

◎片 长 99分钟

◎导 演 吴炫辉 Yuen Fai Ng

◎编 剧 刘浩良 Ho Leung Lau

麦天枢 Tin Shu Mak

◎演 员 古天乐 Louis Koo

刘青云 Sean Lau

刘嘉玲 Carina Lau

姜皓文 Philip Keung Ho-Man

谢君豪 Kwan-Ho Tse

吴倩 Qian Wu

万国鹏 Guopeng Wan

张家辉 Nick Cheung

刘浩良 Ho Leung Lau

麦天枢 Tin Shu Mak

程小夏 Xiaoxia Cheng

赫子铭 Lanpeng He

古天乐 Louis Koo

◎简 介

未来世界,地球因环境污染而千疮百孔,人类家园破败萧条。一颗陨石突然撞击地球,并带来杀伤力极强的外星生物,560万人将因此失去生命。人类命运岌岌可危,总指挥李升(张家辉 饰)派出以军人泰来(古天乐 饰)为首的精英部队前往执行改造计划,部队却突遭暴力攻击,只有泰来和通讯兵光仔(万国鹏 饰)幸存。军官谭冰(刘嘉玲 饰)坚持执行PlanB,指挥官郑重生(刘青云 饰)反对并找来旧友臭鼬(姜皓文 饰)前往支援。拯救家园刻不容缓,但在通讯员小绿(吴倩 饰)悄悄提醒下,泰来发现了一个足以毁天灭地的邪恶阴谋……

  1. ##### MediaInfo ######

  2. General

  3. Complete name : 明日战记.Warriors.of.Future.2022.1080p.WEB-DL.H264.AAC.2Audio-NUMTV.mp4

  4. Format : MPEG-4

  5. Format profile : Base Media

  6. Codec ID : isom (isom/iso2/avc1/mp41)

  7. File size : 4.99 GiB

  8. Duration : 1 h 38 min

  9. Overall bit rate mode : Variable

  10. Overall bit rate : 7 264 kb/s

  11. Writing application : OurTV Multimedia Platform


  12. Video

  13. ID : 1

  14. Format : AVC

  15. Format/Info : Advanced Video Codec

  16. Format profile : [email protected]

  17. Format settings : CABAC / 3 Ref Frames

  18. Format settings, CABAC : Yes

  19. Format settings, Reference frames : 3 frames

  20. Format settings, GOP : M=3, N=50

  21. Codec ID : avc1

  22. Codec ID/Info : Advanced Video Coding

  23. Duration : 1 h 38 min

  24. Source duration : 1 h 38 min

  25. Bit rate mode : Constant

  26. Bit rate : 7 001 kb/s

  27. Width : 1 920 pixels

  28. Height : 1 080 pixels

  29. Display aspect ratio : 16:9

  30. Frame rate mode : Constant

  31. Frame rate : 25.000 FPS

  32. Color space : YUV

  33. Chroma subsampling : 4:2:0

  34. Bit depth : 8 bits

  35. Scan type : Progressive

  36. Bits/(Pixel*Frame) : 0.135

  37. Stream size : 4.61 GiB (92%)

  38. Source stream size : 4.81 GiB (96%)

  39. Writing library : TuralingVideo

  40. Color range : Limited

  41. Color primaries : BT.709

  42. Transfer characteristics : BT.709

  43. Matrix coefficients : BT.709

  44. Codec configuration box : avcC


  45. Audio #1

  46. ID : 2

  47. Format : AAC LC

  48. Format/Info : Advanced Audio Codec Low Complexity

  49. Codec ID : mp4a-40-2

  50. Duration : 1 h 38 min

  51. Bit rate mode : Variable

  52. Bit rate : 125 kb/s

  53. Maximum bit rate : 129 kb/s / 129 kb/s

  54. Channel(s) : 2 channels

  55. Channel layout : L R

  56. Sampling rate : 48.0 kHz

  57. Frame rate : 46.875 FPS (1024 SPF)

  58. Compression mode : Lossy

  59. Stream size : 88.1 MiB (2%)

  60. Title : 国语AAC2.0

  61. Language : Chinese

  62. Default : Yes

  63. Alternate group : 1


  64. Audio #2

  65. ID : 3

  66. Format : AAC LC

  67. Format/Info : Advanced Audio Codec Low Complexity

  68. Codec ID : mp4a-40-2

  69. Duration : 1 h 38 min

  70. Bit rate mode : Variable

  71. Bit rate : 125 kb/s

  72. Maximum bit rate : 129 kb/s / 129 kb/s

  73. Channel(s) : 2 channels

  74. Channel layout : L R

  75. Sampling rate : 48.0 kHz

  76. Frame rate : 46.875 FPS (1024 SPF)

  77. Compression mode : Lossy

  78. Stream size : 88.1 MiB (2%)

  79. Title : 粤语AAC2.0

  80. Language : Chinese

  81. Default : No

  82. Alternate group : 1


复制代码




文件下载


除非特别注明,本文『明日战记[国语配音/中文字幕].Warriors.of.Future.2022.1080p.WEB-DL.H264.AAC.2Audio-NUMTV 4.99GB』来源于互联网机器人自动抓取,非本站原创。 浮游电影网不对本文拥有版权,如有侵犯,请联系邮箱:fuyouu#yandex.com[#换成@]投诉。我们会在15个工作日内删除。 但烦请转载时请标明出处:“本文转载于『浮游电影网』,原文地址:https://www.fuyouu.com/22885.html

评论吧骚年!

发表你的见解   

昵称*

E-mail*(建议输入,以便收到博主回复的提示邮件)

验证码*

您可以使用eMule或eMule Mod(Windows)、aMule(Win、Linux、Mac)等软件下载eD2k链接。。
eMule收藏集(.emulecollection)文件是您选中的所有链接的列表文件。eMule可以直接下载它们。
按住SHIFT键选择可以选中多个选择框。
可用文件名和大小选择器来选择文件。
文件名选择器帮您根据文件名称或后缀来选择文件。不分大小写。
符号使用:
和:空格( )、+
不包含:-
或:|
转义:一对英文引号("");
匹配开头:^
匹配结尾:$
例如:
选中所有名称中包含有“eMule”或“0.49c”字眼,但不包含有“exe”字眼的:emule|0.49c -exe
选中所有名称的开头是“eMule”,结尾是“0.49c”的:^emule 0.49c$
选中所有名称中带有“eMule 0.49c”的(必须是“eMule 0.49c”,中间没有别的字符,不能是“eMule fake 0.49c”),需要转义:"emule 0.49c"
大小选择器帮您根据文件大小选择文件。