当前位置: 首页 >> 国产电影 >> 活着[国语音轨/简繁英双语字幕].To.Live.1994.BluRay.1080p.DTS-HD.MA.2.0.x265.10bit-ALT 10.75GB >> 正文

活着[国语音轨/简繁英双语字幕].To.Live.1994.BluRay.1080p.DTS-HD.MA.2.0.x265.10bit-ALT 10.75GB

2022年12月01日 10:17:36     电影发布:来源于网络     电影分类:国产电影     评论(0)    

◎标 题 活着

◎译 名 人生 / Lifetimes / To Live

◎年 代 1994

◎产 地 中国大陆 / 中国香港

◎类 别 剧情 / 家庭 / 历史

◎语 言 汉语普通话

◎上映日期 1994-06-30(中国香港) / 1994-05-17(戛纳电影节)

◎IMDb评分 8.3/10 (17338人评价)

◎IMDb链接 https://www.imdb.com/title/tt0110081/

◎豆瓣评分 9.3/10 (708876人评价)

◎豆瓣链接 https://movie.douban.com/subject/1292365/

◎片 长 132分钟

◎导 演 张艺谋 Yimou Zhang

◎编 剧 芦苇 Wei Lu

余华 Hua Yu

◎演 员 葛优 You Ge

巩俐 Li Gong

姜武 Wu Jiang

牛犇 Ben Niu

郭涛 Tao Guo

张璐 Lu Zhang

倪大红 Dahong Ni

肖聪 Cong Xiao

董飞 Fei Dong

刘天池 Tianchi Liu

董立范 Lifan Dong

黄宗洛 Zongluo Huang

刘燕瑾 Yanjin Liu

李连义 Lianyi Li

杨同顺 Tongshun Yang

苏岩 Yan Su

王丽华 Lihua Wang

邱复生 Fu-Sheng Chiu

赵季平 Jiping Zhao

吕乐 Yue Lu

金惠良 Huiliang Jin

杜媛 Yuan Du

曹久平 Juiping Cao

沈玉龙 Yulong Shen

佟华苗 Huamiao Tong

张建民 Jianmin Zhang

王斌 Bin Wang

张晓春 Xiaochun Zhang

陶经 Jing Tao

◎标 签 张艺谋 / 活着 / 文革 / 葛优 / 中国电影 / 人生 / 巩俐 / 剧情

◎简 介

根据余华同名小说改编。

富少福贵(葛优)嗜赌成性,妻子家珍(巩俐)屡劝无果后带着女儿凤霞离开了他,当夜,福贵输光所有家产气死父亲,被迫靠变卖母亲首饰租间破屋过活。一年后,家珍手拉凤霞怀抱刚出世的儿子有庆回到家中,福贵痛改前非,开始靠演皮影戏过起安份守己的日子。

但好景不常,内战时期,福贵被国民党抓去当劳工,一番辗转终回到家乡与一家人团圆后,凤霞因病变成哑巴,而在后来的大跃进运动和文化大革命中,他虽获某些小福,逆境却也一直与他如影相随。

  1. ##### MediaInfo ######

  2. General

  3. Unique ID : 110297256431066163404196211677312100613 (0x52FA7A98D35FAE1CBBDAAB8422A8A905)

  4. Complete name : To.Live.1994.BluRay.1080p.DTS-HD.MA.2.0.x265.10bit-ALT.mkv

  5. Format : Matroska

  6. Format version : Version 4

  7. File size : 10.7 GiB

  8. Duration : 2 h 12 min

  9. Overall bit rate mode : Variable

  10. Overall bit rate : 11.6 Mb/s

  11. Encoded date : UTC 2022-11-30 11:49:37

  12. Writing application : mkvmerge v49.0.0 ('Sick Of Losing Soulmates') 64-bit

  13. Writing library : libebml v1.4.0 + libmatroska v1.6.1


  14. Video

  15. ID : 1

  16. Format : HEVC

  17. Format/Info : High Efficiency Video Coding

  18. Format profile : Main [email protected]@High

  19. Codec ID : V_MPEGH/ISO/HEVC

  20. Duration : 2 h 12 min

  21. Bit rate : 10.0 Mb/s

  22. Width : 1 920 pixels

  23. Height : 1 038 pixels

  24. Display aspect ratio : 1.85:1

  25. Frame rate mode : Constant

  26. Frame rate : 23.976 (24000/1001/53354) FPS

  27. Color space : YUV

  28. Chroma subsampling : 4:2:0

  29. Bit depth : 10 bits

  30. Bits/(Pixel*Frame) : 0.210

  31. Stream size : 9.28 GiB (86%)

  32. Title : HEVC, [email protected]@High, 24/1.001 fps @ 9800 kbps

  33. Writing library : x265 3.5+40-6064f96a6:[Windows][GCC 12.2.0][64 bit] 10bit

  34. Encoding settings : cpuid=533541111039 / frame-threads=4 / numa-pools=16 / wpp / no-pmode / no-pme / no-psnr / no-ssim / log-level=2 / input-csp=1 / input-res=1920x1038 / interlace=0 / total-frames=190457 / level-idc=51 / high-tier=1 / uhd-bd=0 / ref=5 / no-allow-non-conformance / no-repeat-headers / annexb / no-aud / no-eob / no-eos / no-hrd / info / hash=0 / no-temporal-layers / open-gop / min-keyint=24 / keyint=240 / gop-lookahead=0 / bframes=6 / b-adapt=2 / b-pyramid / bframe-bias=0 / rc-lookahead=40 / lookahead-slices=0 / NTMzNTQ=uuDQuD2mJt9fsCf / scenecut=40 / no-hist-scenecut / radl=0 / no-splice / no-intra-refresh / ctu=32 / min-cu-size=8 / no-rect / no-amp / max-tu-size=32 / tu-inter-depth=3 / tu-intra-depth=3 / limit-tu=4 / rdoq-level=2 / dynamic-rd=0.00 / no-ssim-rd / signhide / no-tskip / nr-intra=0 / nr-inter=0 / no-constrained-intra / no-strong-intra-smoothing / max-merge=4 / limit-refs=1 / limit-modes / me=3 / subme=4 / merange=25 / temporal-mvp / no-frame-dup / no-hme / weightp / weightb / no-analyze-src-pics / deblock=-3:-3 / no-sao / no-sao-non-deblock / rd=6 / selective-sao=0 / no-early-skip / rskip / no-fast-intra / no-tskip-fast / no-cu-lossless / b-intra / no-splitrd-skip / rdpenalty=0 / psy-rd=2.00 / psy-rdoq=1.00 / no-rd-refine / no-lossless / cbqpoffs=-2 / crqpoffs=-2 / rc=crf / crf=17.0 / qcomp=0.65 / qpstep=4 / stats-write=0 / stats-read=0 / vbv-maxrate=80000 / vbv-bufsize=80000 / vbv-init=0.9 / min-vbv-fullness=50.0 / max-vbv-fullness=80.0 / crf-max=0.0 / crf-min=0.0 / ipratio=1.40 / pbratio=1.30 / aq-mode=2 / aq-strength=0.85 / cutree / zone-count=0 / no-strict-cbr / qg-size=32 / no-rc-grain / qpmax=69 / qpmin=0 / no-const-vbv / sar=1 / overscan=0 / videoformat=5 / range=0 / colorprim=1 / transfer=1 / colormatrix=1 / chromaloc=0 / display-window=0 / cll=0,0 / min-luma=0 / max-luma=1023 / log2-max-poc-lsb=8 / vui-timing-info / vui-hrd-info / slices=1 / no-opt-qp-pps / no-opt-ref-list-length-pps / no-multi-pass-opt-rps / scenecut-bias=0.05 / hist-threshold=0.03 / no-opt-cu-delta-qp / no-aq-motion / no-hdr10 / no-hdr10-opt / no-dhdr10-opt / no-idr-recovery-sei / analysis-reuse-level=0 / analysis-save-reuse-level=0 / analysis-load-reuse-level=0 / scale-factor=0 / refine-intra=0 / refine-inter=0 / refine-mv=1 / refine-ctu-distortion=0 / no-limit-sao / ctu-info=0 / no-lowpass-dct / refine-analysis-type=0 / copy-pic=1 / max-ausize-factor=1.0 / no-dynamic-refine / no-single-sei / no-hevc-aq / no-svt / no-field / qp-adaptation-range=1.00 / scenecut-aware-qp=0conformance-window-offsets / right=0 / bottom=0 / NTMzNTQ= / decoder-max-rate=0 / no-vbv-live-multi-pass

  35. Language : English

  36. Default : Yes

  37. Forced : No

  38. Color range : Limited

  39. Color primaries : BT.709

  40. Transfer characteristics : BT.709

  41. Matrix coefficients : BT.709


  42. Audio

  43. ID : 2

  44. Format : DTS XLL

  45. Format/Info : Digital Theater Systems

  46. Commercial name : DTS-HD Master Audio

  47. Codec ID : A_DTS

  48. Duration : 2 h 12 min

  49. Bit rate mode : Variable

  50. Bit rate : 1 465 kb/s

  51. Channel(s) : 2 channels

  52. Channel layout : L R

  53. Sampling rate : 48.0 kHz

  54. Frame rate : 93.750 FPS (512 SPF)

  55. Bit depth : 24 bits

  56. Compression mode : Lossless

  57. Stream size : 1.35 GiB (13%)

  58. Title : Mandarin DTS-HD Master Audio 2.0 @ 1466 国语

  59. Language : Chinese

  60. Default : Yes

  61. Forced : No


  62. Text #1

  63. ID : 3

  64. Format : PGS

  65. Codec ID : S_HDMV/PGS

  66. Codec ID/Info : Picture based subtitle format used on BDs/HD-DVDs

  67. Duration : 2 h 9 min

  68. Bit rate : 18.4 kb/s

  69. Count of elements : 2754

  70. Stream size : 17.0 MiB (0%)

  71. Title : Eng/SUP

  72. Language : English

  73. Default : No

  74. Forced : No


  75. Text #2

  76. ID : 4

  77. Format : PGS

  78. Codec ID : S_HDMV/PGS

  79. Codec ID/Info : Picture based subtitle format used on BDs/HD-DVDs

  80. Duration : 2 h 9 min

  81. Bit rate : 17.2 kb/s

  82. Count of elements : 1612

  83. Stream size : 15.9 MiB (0%)

  84. Title : Chs/SUP 简体

  85. Language : Chinese

  86. Default : Yes

  87. Forced : No


  88. Text #3

  89. ID : 5

  90. Format : PGS

  91. Codec ID : S_HDMV/PGS

  92. Codec ID/Info : Picture based subtitle format used on BDs/HD-DVDs

  93. Duration : 2 h 9 min

  94. Bit rate : 17.8 kb/s

  95. Count of elements : 1612

  96. Stream size : 16.6 MiB (0%)

  97. Title : Cht/SUP 繁体

  98. Language : Chinese

  99. Default : No

  100. Forced : No


  101. Text #4

  102. ID : 6

  103. Format : PGS

  104. Codec ID : S_HDMV/PGS

  105. Codec ID/Info : Picture based subtitle format used on BDs/HD-DVDs

  106. Duration : 2 h 9 min

  107. Bit rate : 31.7 kb/s

  108. Count of elements : 1612

  109. Stream size : 29.4 MiB (0%)

  110. Title : Chs/SUP 简英双语

  111. Language : Chinese

  112. Default : No

  113. Forced : No


  114. Text #5

  115. ID : 7

  116. Format : PGS

  117. Codec ID : S_HDMV/PGS

  118. Codec ID/Info : Picture based subtitle format used on BDs/HD-DVDs

  119. Duration : 2 h 9 min

  120. Bit rate : 32.5 kb/s

  121. Count of elements : 1612

  122. Stream size : 30.2 MiB (0%)

  123. Title : Cht/SUP 繁英双语

  124. Language : Chinese

  125. Default : No

  126. Forced : No


  127. Menu

  128. 00:00:00.000 : en:第 01 章

  129. 00:08:43.356 : en:第 02 章

  130. 00:20:37.695 : en:第 03 章

  131. 00:28:21.325 : en:第 04 章

  132. 00:41:39.914 : en:第 05 章

  133. 00:51:45.227 : en:第 06 章

  134. 01:06:57.847 : en:第 07 章

  135. 01:21:49.947 : en:第 08 章

  136. 01:32:41.973 : en:第 09 章

  137. 01:43:43.175 : en:第 10 章

  138. 02:03:35.908 : en:第 11 章

  139. 02:09:42.817 : en:第 12 章


复制代码




文件下载


除非特别注明,本文『活着[国语音轨/简繁英双语字幕].To.Live.1994.BluRay.1080p.DTS-HD.MA.2.0.x265.10bit-ALT 10.75GB』来源于互联网机器人自动抓取,非本站原创。 浮游电影网不对本文拥有版权,如有侵犯,请联系邮箱:fuyouu#yandex.com[#换成@]投诉。我们会在15个工作日内删除。 但烦请转载时请标明出处:“本文转载于『浮游电影网』,原文地址:https://www.fuyouu.com/22884.html

评论吧骚年!

发表你的见解   

昵称*

E-mail*(建议输入,以便收到博主回复的提示邮件)

验证码*

您可以使用eMule或eMule Mod(Windows)、aMule(Win、Linux、Mac)等软件下载eD2k链接。。
eMule收藏集(.emulecollection)文件是您选中的所有链接的列表文件。eMule可以直接下载它们。
按住SHIFT键选择可以选中多个选择框。
可用文件名和大小选择器来选择文件。
文件名选择器帮您根据文件名称或后缀来选择文件。不分大小写。
符号使用:
和:空格( )、+
不包含:-
或:|
转义:一对英文引号("");
匹配开头:^
匹配结尾:$
例如:
选中所有名称中包含有“eMule”或“0.49c”字眼,但不包含有“exe”字眼的:emule|0.49c -exe
选中所有名称的开头是“eMule”,结尾是“0.49c”的:^emule 0.49c$
选中所有名称中带有“eMule 0.49c”的(必须是“eMule 0.49c”,中间没有别的字符,不能是“eMule fake 0.49c”),需要转义:"emule 0.49c"
大小选择器帮您根据文件大小选择文件。