当前位置: 首页 >> 海外电影 >> 以复仇为名[简繁英字幕].My.Name.Is.Vendetta.2022.1080p.NF.WEB-DL.DDP5.1.H.264-DreamHD 3.50GB >> 正文

以复仇为名[简繁英字幕].My.Name.Is.Vendetta.2022.1080p.NF.WEB-DL.DDP5.1.H.264-DreamHD 3.50GB

2022年12月01日 10:15:31     电影发布:来源于网络     电影分类:海外电影     评论(0)    

◎标 题 以复仇为名

◎译 名 My Name Is Vendetta

◎片 名 Il mio nome è vendetta

◎年 代 2022

◎产 地 意大利

◎类 别 剧情 / 惊悚 / 犯罪

◎语 言 意大利语

◎上映日期 2022-11-30(意大利网络)

◎IMDb链接 https://www.imdb.com/title/tt15229674/

◎豆瓣链接 https://movie.douban.com/subject/35594766/

◎片 长 90分钟

◎导 演 科西莫·高梅茲 Cosimo Gomez

◎编 剧 Sandrone Dazieri Sandrone Dazieri

科西莫·高梅茲 Cosimo Gomez

安德里亚·诺比勒 Andrea Nobile

◎演 员 亚历山德罗·加斯曼 Alessandro Gassmann

雷莫·吉罗内 Remo Girone

Sinja Dieks Sinja Dieks

阿莱西奥·普拉蒂科 Alessio Praticò

吉内维拉·弗兰切斯科尼 Ginevra Francesconi

  1. ##### MediaInfo ######

  2. General

  3. Unique ID : 11775748321601008622289899358555186635 (0x8DBED37B0AC35B87A80C444CA43A5CB)

  4. Complete name : My.Name.Is.Vendetta.2022.1080p.NF.WEB-DL.DDP5.1.H.264-DreamHD.mkv

  5. Format : Matroska

  6. Format version : Version 4

  7. File size : 3.50 GiB

  8. Duration : 1 h 32 min

  9. Overall bit rate mode : Variable

  10. Overall bit rate : 5 443 kb/s

  11. Encoded date : UTC 2022-11-30 12:33:14

  12. Writing application : mkvmerge v71.1.0 ('Fortitude') 64-bit

  13. Writing library : libebml v1.4.4 + libmatroska v1.7.1


  14. Video

  15. ID : 1

  16. Format : AVC

  17. Format/Info : Advanced Video Codec

  18. Format profile : [email protected]

  19. Format settings : CABAC / 3 Ref Frames

  20. Format settings, CABAC : Yes

  21. Format settings, Reference frames : 3 frames

  22. Codec ID : V_MPEG4/ISO/AVC

  23. Duration : 1 h 32 min

  24. Bit rate mode : Variable

  25. Bit rate : 5 000 kb/s

  26. Maximum bit rate : 7 500 kb/s

  27. Width : 1 920 pixels

  28. Height : 1 080 pixels

  29. Display aspect ratio : 16:9

  30. Frame rate mode : Constant

  31. Frame rate : 24.000 FPS

  32. Color space : YUV

  33. Chroma subsampling : 4:2:0

  34. Bit depth : 8 bits

  35. Scan type : Progressive

  36. Bits/(Pixel*Frame) : 0.100

  37. Stream size : 3.09 GiB (88%)

  38. Writing library : x264 core 148 r2727 7d026e8

  39. Encoding settings : cabac=1 / ref=3 / deblock=1:0:0 / analyse=0x1:0x111 / me=umh / subme=10 / psy=1 / psy_rd=1.00:0.00 / mixed_ref=1 / me_range=24 / chroma_me=1 / trellis=2 / 8x8dct=0 / cqm=0 / deadzone=21,11 / fast_pskip=1 / chroma_qp_offset=-2 / threads=8 / lookahead_threads=1 / sliced_threads=0 / nr=0 / decimate=1 / interlaced=0 / NTMzNTQ= / bluray_compat=0 / stitchable=1 / constrained_intra=0 / bframes=2 / b_pyramid=0 / b_adapt=2 / b_bias=0 / direct=3 / weightb=1 / open_gop=0 / weightp=2 / keyint=48 / keyint_min=25 / scenecut=0 / intra_refresh=0 / rc_lookahead=48 / rc=2pass / mbtree=1 / bitrate=5000 / ratetol=1.0 / qcomp=0.50 / qpmin=6 / qpmax=51 / qpstep=4 / cplxblur=20.0 / qblur=0.5 / vbv_maxrate=7500 / vbv_bufsize=10000 / nal_hrd=vbr / filler=0 / NTMzNTQ=LmsMAP37EqsCpk / ip_ratio=1.40 / aq=1:1.00

  40. Language : Italian

  41. Default : Yes

  42. Forced : No


  43. Audio

  44. ID : 2

  45. Format : E-AC-3

  46. Format/Info : Enhanced AC-3

  47. Commercial name : Dolby Digital Plus

  48. Codec ID : A_EAC3

  49. Duration : 1 h 32 min

  50. Bit rate mode : Constant

  51. Bit rate : 640 kb/s

  52. Channel(s) : 6 channels

  53. Channel layout : L R C LFE Ls Rs

  54. Sampling rate : 48.0 kHz

  55. Frame rate : 31.250 FPS (1536 SPF)

  56. Compression mode : Lossy

  57. Stream size : 422 MiB (12%)

  58. Language : Italian

  59. Service kind : Complete Main

  60. Default : Yes

  61. Forced : No


  62. Text #1

  63. ID : 3

  64. Format : UTF-8

  65. Codec ID : S_TEXT/UTF8

  66. Codec ID/Info : UTF-8 Plain Text

  67. Duration : 1 h 30 min

  68. Bit rate : 32 b/s

  69. Count of elements : 787

  70. Stream size : 21.3 KiB (0%)

  71. Title : Simplified

  72. Language : Chinese

  73. Default : No

  74. Forced : No


  75. Text #2

  76. ID : 4

  77. Format : UTF-8

  78. Codec ID : S_TEXT/UTF8

  79. Codec ID/Info : UTF-8 Plain Text

  80. Duration : 1 h 30 min

  81. Bit rate : 32 b/s

  82. Count of elements : 792

  83. Stream size : 21.7 KiB (0%)

  84. Title : Traditional

  85. Language : Chinese

  86. Default : No

  87. Forced : No


  88. Text #3

  89. ID : 5

  90. Format : UTF-8

  91. Codec ID : S_TEXT/UTF8

  92. Codec ID/Info : UTF-8 Plain Text

  93. Duration : 1 h 30 min

  94. Bit rate : 57 b/s

  95. Count of elements : 1512

  96. Stream size : 37.8 KiB (0%)

  97. Title : SDH

  98. Language : English

  99. Default : No

  100. Forced : No


  101. Text #4

  102. ID : 6

  103. Format : UTF-8

  104. Codec ID : S_TEXT/UTF8

  105. Codec ID/Info : UTF-8 Plain Text

  106. Duration : 1 h 30 min

  107. Bit rate : 29 b/s

  108. Count of elements : 767

  109. Stream size : 19.7 KiB (0%)

  110. Language : English

  111. Default : No

  112. Forced : No


  113. Text #5

  114. ID : 7

  115. Format : UTF-8

  116. Codec ID : S_TEXT/UTF8

  117. Codec ID/Info : UTF-8 Plain Text

  118. Duration : 1 h 25 min

  119. Bit rate : 35 b/s

  120. Count of elements : 809

  121. Stream size : 22.2 KiB (0%)

  122. Language : English

  123. Default : No

  124. Forced : No


复制代码





文件下载


除非特别注明,本文『以复仇为名[简繁英字幕].My.Name.Is.Vendetta.2022.1080p.NF.WEB-DL.DDP5.1.H.264-DreamHD 3.50GB』来源于互联网机器人自动抓取,非本站原创。 浮游电影网不对本文拥有版权,如有侵犯,请联系邮箱:fuyouu#yandex.com[#换成@]投诉。我们会在15个工作日内删除。 但烦请转载时请标明出处:“本文转载于『浮游电影网』,原文地址:https://www.fuyouu.com/22881.html

评论吧骚年!

发表你的见解   

昵称*

E-mail*(建议输入,以便收到博主回复的提示邮件)

验证码*

您可以使用eMule或eMule Mod(Windows)、aMule(Win、Linux、Mac)等软件下载eD2k链接。。
eMule收藏集(.emulecollection)文件是您选中的所有链接的列表文件。eMule可以直接下载它们。
按住SHIFT键选择可以选中多个选择框。
可用文件名和大小选择器来选择文件。
文件名选择器帮您根据文件名称或后缀来选择文件。不分大小写。
符号使用:
和:空格( )、+
不包含:-
或:|
转义:一对英文引号("");
匹配开头:^
匹配结尾:$
例如:
选中所有名称中包含有“eMule”或“0.49c”字眼,但不包含有“exe”字眼的:emule|0.49c -exe
选中所有名称的开头是“eMule”,结尾是“0.49c”的:^emule 0.49c$
选中所有名称中带有“eMule 0.49c”的(必须是“eMule 0.49c”,中间没有别的字符,不能是“eMule fake 0.49c”),需要转义:"emule 0.49c"
大小选择器帮您根据文件大小选择文件。