当前位置: 首页 >> 动画电影 >> 泰壹[中文字幕].Chun.Tae-il.A.Flame.That.Lives.On.2021.1080p.WEB-DL.x264.AAC-MOMOWEB 2.26GB >> 正文

泰壹[中文字幕].Chun.Tae-il.A.Flame.That.Lives.On.2021.1080p.WEB-DL.x264.AAC-MOMOWEB 2.26GB

2022年12月01日 10:14:43     电影发布:来源于网络     电影分类:动画电影     评论(0)    

◎标 题 泰壹

◎译 名 Taeil / Chun Tae-Il / Chun Tae-il: A Flame That Lives On / 血汗英雄全泰壹(台)

◎片 名 태일이

◎年 代 2021

◎产 地 韩国

◎类 别 剧情 / 动画 / 传记

◎语 言 韩语

◎上映日期 2021-10-07(釜山电影节) / 2021-12-01(韩国)

◎IMDb评分 7.4/10 (29人评价)

◎IMDb链接 https://www.imdb.com/title/tt16159984/

◎豆瓣评分 7.9/10 (110人评价)

◎豆瓣链接 https://movie.douban.com/subject/35234229/

◎片 长 100分钟

◎编 剧 金景灿 Kyung-chan Kim

◎演 员 张东润 Dong-yoon Jang

廉惠兰 Yum Hye-ran

陈善圭 Seon-kyu Jin

权海骁 Hae-hyo Kwon

朴哲民 Cheol-min Park

申正允 Shin Jung-yoon

◎简 介

「遵守勞工標準法!我們不是機器!」改篇自真人真事,身為貧窮家庭的長男,全泰壹自小以勞力為生。雖在22歲時獲得嚮往已久的裁縫職位,他始終無法忽視身邊勞工的苦況:他們在惡劣的環境下長期工作,而且沒有足夠的保障。為了改進韓國勞工的工作環境,他自學《勞動基準法》及組織讀書會。意識到善意不會帶來任何改變,他迫切希望將周圍的人從貧困和剝削地獄中解放出來,最終手持《勞動基準法》自焚身亡抗議。全泰壹的故事早於1995年被韓國新電影先驅朴光洙導演拍成電影,並由當時呶从袌虒Ы涷灥睦顪鏂|擔任編劇,入圍柏林影展。是次改編成動畫,打破了韓國本土動畫的票房紀錄,以充滿情感的劇本和精彩的視覺畫面向全泰壹致敬。

  1. ##### MediaInfo ######

  2. General

  3. Unique ID : 262653955952095218012571234663095576721 (0xC5994FD73C6A1259381C743DF523A891)

  4. Complete name : Chun.Tae-il.A.Flame.That.Lives.On.2021.1080p.WEB-DL.x264.AAC-MOMOWEB.mkv

  5. Format : Matroska

  6. Format version : Version 4

  7. File size : 2.25 GiB

  8. Duration : 1 h 39 min

  9. Overall bit rate : 3 252 kb/s

  10. Encoded date : UTC 2022-11-29 05:32:45

  11. Writing application : mkvmerge v68.0.0 ('The Curtain') 64-bit

  12. Writing library : libebml v1.4.2 + libmatroska v1.6.4


  13. Video

  14. ID : 1

  15. Format : AVC

  16. Format/Info : Advanced Video Codec

  17. Format profile : [email protected]

  18. Format settings : CABAC / 5 Ref Frames

  19. Format settings, CABAC : Yes

  20. Format settings, Reference frames : 5 frames

  21. Codec ID : V_MPEG4/ISO/AVC

  22. Duration : 1 h 39 min

  23. Bit rate : 3 000 kb/s

  24. Width : 1 920 pixels

  25. Height : 1 080 pixels

  26. Display aspect ratio : 16:9

  27. Frame rate mode : Constant

  28. Frame rate : 29.970 (30000/1001/53354) FPS

  29. Color space : YUV

  30. Chroma subsampling : 4:2:0

  31. Bit depth : 8 bits

  32. Scan type : Progressive

  33. Bits/(Pixel*Frame) : 0.048

  34. Stream size : 2.12 GiB (94%)

  35. Writing library : x264 core 142

  36. Encoding settings : cabac=1 / ref=5 / deblock=1:0:0 / analyse=0x3:0x113 / me=umh / subme=9 / psy=1 / psy_rd=1.00:0.00 / mixed_ref=1 / me_range=32 / chroma_me=1 / trellis=1 / 8x8dct=1 / cqm=0 / deadzone=21,11 / fast_pskip=1 / chroma_qp_offset=-2 / threads=6 / lookahead_threads=1 / sliced_threads=0 / nr=0 / decimate=1 / interlaced=0 / NTMzNTQ= / bluray_compat=0 / stitchable=1 / constrained_intra=0 / bframes=3 / b_pyramid=2 / b_adapt=1 / b_bias=0 / direct=3 / weightb=1 / open_gop=0 / weightp=2 / keyint=30 / keyint_min=3 / scenecut=0 / intra_refresh=0 / rc_lookahead=40 / rc=abr / mbtree=1 / bitrate=3000 / ratetol=1.0 / qcomp=0.60 / qpmin=0 / qpmax=69 / qpstep=4 / vbv_maxrate=4500 / vbv_bufsize=6750 / nal_hrd=none / filler=0 / NTMzNTQ=LmsMAP37EqsCpk / ip_ratio=1.40 / aq=1:1.00

  37. Default : Yes

  38. Forced : No


  39. Audio

  40. ID : 2

  41. Format : AAC LC

  42. Format/Info : Advanced Audio Codec Low Complexity

  43. Codec ID : A_AAC-2

  44. Duration : 1 h 39 min

  45. Bit rate : 192 kb/s

  46. Channel(s) : 2 channels

  47. Channel layout : L R

  48. Sampling rate : 44.1 kHz

  49. Frame rate : 43.066 FPS (1024 SPF)

  50. Compression mode : Lossy

  51. Stream size : 136 MiB (6%)

  52. Language : Korean

  53. Default : Yes

  54. Forced : No


复制代码



文件下载


除非特别注明,本文『泰壹[中文字幕].Chun.Tae-il.A.Flame.That.Lives.On.2021.1080p.WEB-DL.x264.AAC-MOMOWEB 2.26GB』来源于互联网机器人自动抓取,非本站原创。 浮游电影网不对本文拥有版权,如有侵犯,请联系邮箱:fuyouu#yandex.com[#换成@]投诉。我们会在15个工作日内删除。 但烦请转载时请标明出处:“本文转载于『浮游电影网』,原文地址:https://www.fuyouu.com/22880.html

评论吧骚年!

发表你的见解   

昵称*

E-mail*(建议输入,以便收到博主回复的提示邮件)

验证码*

您可以使用eMule或eMule Mod(Windows)、aMule(Win、Linux、Mac)等软件下载eD2k链接。。
eMule收藏集(.emulecollection)文件是您选中的所有链接的列表文件。eMule可以直接下载它们。
按住SHIFT键选择可以选中多个选择框。
可用文件名和大小选择器来选择文件。
文件名选择器帮您根据文件名称或后缀来选择文件。不分大小写。
符号使用:
和:空格( )、+
不包含:-
或:|
转义:一对英文引号("");
匹配开头:^
匹配结尾:$
例如:
选中所有名称中包含有“eMule”或“0.49c”字眼,但不包含有“exe”字眼的:emule|0.49c -exe
选中所有名称的开头是“eMule”,结尾是“0.49c”的:^emule 0.49c$
选中所有名称中带有“eMule 0.49c”的(必须是“eMule 0.49c”,中间没有别的字符,不能是“eMule fake 0.49c”),需要转义:"emule 0.49c"
大小选择器帮您根据文件大小选择文件。