当前位置: 首页 >> 海外电影 >> 庞尼因·塞尔文:第一部分[中文字幕].Ponniyin.Selvan.Part.1.2022.1080p.AMZN.WEB-DL.DDP.5.1.H.264-DreamHD 11.06GB >> 正文

庞尼因·塞尔文:第一部分[中文字幕].Ponniyin.Selvan.Part.1.2022.1080p.AMZN.WEB-DL.DDP.5.1.H.264-DreamHD 11.06GB

2022年11月30日 09:35:03     电影发布:来源于网络     电影分类:海外电影     评论(0)    

◎标 题 庞尼因·塞尔文:第一部分

◎片 名 Ponniyin Selvan: Part One

◎年 代 2022

◎产 地 印度

◎类 别 动作 / 历史 / 奇幻

◎语 言 泰米尔语 / 印地语 / 泰卢固语 / 卡纳达语 / 马拉雅拉姆语

◎上映日期 2022-09-30(印度)

◎IMDb评分 8.6/10 (17108人评价)

◎IMDb链接 https://www.imdb.com/title/tt10701074/

◎豆瓣链接 https://movie.douban.com/subject/35700237/

◎片 长 170分钟

◎导 演 曼尼·拉特纳姆 Mani Ratnam

◎编 剧 曼尼·拉特纳姆 Mani Ratnam

杰亚莫汉 Jayamohan

埃兰戈·库马拉维尔 Kumaravel

◎演 员 维克拉姆 Chiyaan Vikram

卡尔迪 Karthi

杰亚姆·拉维 Jayam Ravi

艾西瓦娅·雷 Aishwarya Rai

特丽莎·克里希南 Trisha Krishnan

索比塔·杜里帕拉 Sobhita Dhulipala

艾西瓦娅·莱克希米 Aishwarya Lekshmi

贾亚拉姆 Jayaram

维克拉姆·帕布 Vikram Prabhu

阿什温·卡库马努 Ashwin Kakumanu

萨拉特·库马尔 Sarath Kumar

帕提班·拉达克里希南 Parthiban Radhakrishnan

帕布 Prabhu

普拉卡什·拉贾 Prakash Raj

纳赛尔 Nassar

莎拉·阿尔琼 Sara Arjun

维杰·耶苏达斯 Vijay Yesudas

巴布·安托尼 Babu Antony

基肖尔·库马尔·G· Kishore Kumar G.

卡马尔·哈山 Kamal Haasan

◎简 介

This title comes under the genre of historical fiction. This is a story written by Kalki Krishnamurthy about the power struggle during the Chozha rule between ADs 900 and 950. The three main points of the plot are the ruler Sundara Chozhan and his sons Adithya Karikalan and Arulmozhivarman (who later ruled as Rajaraja Chozhan). The conspiracies and the struggle for power betwee...

  1. ##### MediaInfo ######

  2. General

  3. Unique ID : 76330932012958930496236727683232922454 (0x396CCD81FC56E0BEC061EC0A4C997B56)

  4. Complete name : Ponniyin.Selvan.Part.1.2022.1080p.AMZN.WEB-DL.DDP.5.1.H.264-DreamHD.mkv

  5. Format : Matroska

  6. Format version : Version 4

  7. File size : 11.1 GiB

  8. Duration : 2 h 46 min

  9. Overall bit rate : 9 492 kb/s

  10. Encoded date : UTC 2022-11-28 07:06:25

  11. Writing application : mkvmerge v71.1.0 ('Fortitude') 64-bit

  12. Writing library : libebml v1.4.4 + libmatroska v1.7.1


  13. Video

  14. ID : 1

  15. Format : AVC

  16. Format/Info : Advanced Video Codec

  17. Format profile : [email protected]

  18. Format settings : CABAC / 4 Ref Frames

  19. Format settings, CABAC : Yes

  20. Format settings, Reference frames : 4 frames

  21. Codec ID : V_MPEG4/ISO/AVC

  22. Duration : 2 h 46 min

  23. Bit rate mode : Constant

  24. Bit rate : 8 850 kb/s

  25. Nominal bit rate : 10 000 kb/s

  26. Width : 1 920 pixels

  27. Height : 800 pixels

  28. Display aspect ratio : 2.40:1

  29. Frame rate mode : Constant

  30. Frame rate : 24.000 FPS

  31. Color space : YUV

  32. Chroma subsampling : 4:2:0

  33. Bit depth : 8 bits

  34. Scan type : Progressive

  35. Bits/(Pixel*Frame) : 0.240

  36. Stream size : 10.3 GiB (93%)

  37. Language : Tamil

  38. Default : Yes

  39. Forced : No

  40. Color range : Limited

  41. Color primaries : BT.709

  42. Transfer characteristics : BT.709

  43. Matrix coefficients : BT.709


  44. Audio

  45. ID : 2

  46. Format : E-AC-3

  47. Format/Info : Enhanced AC-3

  48. Commercial name : Dolby Digital Plus

  49. Codec ID : A_EAC3

  50. Duration : 2 h 46 min

  51. Bit rate mode : Constant

  52. Bit rate : 640 kb/s

  53. Channel(s) : 6 channels

  54. Channel layout : L R C LFE Ls Rs

  55. Sampling rate : 48.0 kHz

  56. Frame rate : 31.250 FPS (1536 SPF)

  57. Compression mode : Lossy

  58. Stream size : 764 MiB (7%)

  59. Title : India

  60. Language : Tamil

  61. Service kind : Complete Main

  62. Default : Yes

  63. Forced : No


  64. Text #1

  65. ID : 3

  66. Format : UTF-8

  67. Codec ID : S_TEXT/UTF8

  68. Codec ID/Info : UTF-8 Plain Text

  69. Duration : 2 h 38 min

  70. Bit rate : 46 b/s

  71. Count of elements : 1625

  72. Stream size : 54.0 KiB (0%)

  73. Title : Simplified

  74. Language : Chinese

  75. Default : No

  76. Forced : No


  77. Text #2

  78. ID : 4

  79. Format : UTF-8

  80. Codec ID : S_TEXT/UTF8

  81. Codec ID/Info : UTF-8 Plain Text

  82. Duration : 2 h 38 min

  83. Bit rate : 49 b/s

  84. Count of elements : 1625

  85. Stream size : 56.8 KiB (0%)

  86. Language : English

  87. Default : No

  88. Forced : No


复制代码




文件下载


除非特别注明,本文『庞尼因·塞尔文:第一部分[中文字幕].Ponniyin.Selvan.Part.1.2022.1080p.AMZN.WEB-DL.DDP.5.1.H.264-DreamHD 11.06GB』来源于互联网机器人自动抓取,非本站原创。 浮游电影网不对本文拥有版权,如有侵犯,请联系邮箱:fuyouu#yandex.com[#换成@]投诉。我们会在15个工作日内删除。 但烦请转载时请标明出处:“本文转载于『浮游电影网』,原文地址:https://www.fuyouu.com/22879.html

评论吧骚年!

发表你的见解   

昵称*

E-mail*(建议输入,以便收到博主回复的提示邮件)

验证码*

您可以使用eMule或eMule Mod(Windows)、aMule(Win、Linux、Mac)等软件下载eD2k链接。。
eMule收藏集(.emulecollection)文件是您选中的所有链接的列表文件。eMule可以直接下载它们。
按住SHIFT键选择可以选中多个选择框。
可用文件名和大小选择器来选择文件。
文件名选择器帮您根据文件名称或后缀来选择文件。不分大小写。
符号使用:
和:空格( )、+
不包含:-
或:|
转义:一对英文引号("");
匹配开头:^
匹配结尾:$
例如:
选中所有名称中包含有“eMule”或“0.49c”字眼,但不包含有“exe”字眼的:emule|0.49c -exe
选中所有名称的开头是“eMule”,结尾是“0.49c”的:^emule 0.49c$
选中所有名称中带有“eMule 0.49c”的(必须是“eMule 0.49c”,中间没有别的字符,不能是“eMule fake 0.49c”),需要转义:"emule 0.49c"
大小选择器帮您根据文件大小选择文件。