当前位置: 首页 >> 动画电影 >> 我爸爸的小飞龙[简繁英字幕].My.Father's.Dragon.2022.1080p.NF.WEB-DL.H264.DDP5.1-TAGWEB 6.45GB >> 正文

我爸爸的小飞龙[简繁英字幕].My.Father's.Dragon.2022.1080p.NF.WEB-DL.H264.DDP5.1-TAGWEB 6.45GB

2022年11月30日 09:34:21     电影发布:来源于网络     电影分类:动画电影     评论(0)    

◎标 题 我爸爸的小飞龙

◎片 名 My Father's Dragon

◎年 代 2022

◎产 地 爱尔兰 / 美国

◎类 别 剧情 / 喜剧 / 动画 / 奇幻 / 冒险

◎语 言 英语

◎上映日期 2022-11-04(英国) / 2022-11-11(英国网络)

◎IMDb评分 7.5/10 (52人评价)

◎IMDb链接 https://www.imdb.com/title/tt9288748/

◎豆瓣链接 https://movie.douban.com/subject/30405970/

◎导 演 诺拉·托梅 Nora Twomey

◎编 剧 露丝·斯蒂尔斯·甘内特 Ruth Stiles Gannett

梅格·勒福夫 Meg LeFauve

◎演 员 雅各布·特伦布莱 Jacob Tremblay

伽塔·马塔拉佐 Gaten Matarazzo

格什菲·法拉哈尼 Golshifteh Farahani

黛安·韦斯特 Dianne Wiest

克里斯·奥多德 Chris O'Dowd

朱迪·格雷尔 Judy Greer

艾伦·卡明 Alan Cumming

雅拉·沙希迪 Yara Shahidi

杰基·厄尔·哈利 Jackie Earle Haley

莉顿·梅斯特 Leighton Meester

斯彭斯·摩尔二世 Spence Moore II

亚当·布罗迪 Adam Brody

查琳·易 Charlyne Yi

玛吉·林肯 Maggie Lincoln

玛丽·凯·普莱斯 Mary Kay Place

丽塔·莫雷诺 Rita Moreno

伊恩·麦柯肖恩 Ian McShane

乌比·戈德堡 Whoopi Goldberg

埃里克·蒂德 Eric Tiede

汤姆·摩尔 Tomm Moore

◎简 介

《My Father's Dragon》(暂译:我爸爸的小飞龙)是一部 2D 动画家庭电影,由诺拉·托梅(《凯尔经的秘密》《养家之人》)担任导演,梅格·勒福夫(《头脑特工队》《恐龙当家》)担任编剧,故事出自梅格·勒福夫和约翰·摩根之手,他们二人也同时担任监制。邦尼·柯蒂斯和朱莉·林恩(就职于 Mockingbird Pictures)与保罗·杨(就职于 Cartoon Saloon,《凯尔经的秘密》《养家之人》)和汤姆·摩尔共同担任制作人。《我爸爸的小飞龙》改编自鲁思·斯泰尔斯·甘尼特荣获纽伯里奖的儿童小说,讲述了一名逃跑的年轻人埃尔默·埃莱瓦托的故事,他在野蛮岛上寻找被囚禁的龙,随后发现的事情完全超出了他的预期。艾伦·莫洛尼和鲁思·科迪(就职于 Parallel Films)将与格里·希林共同担任监制。

  1. ##### MediaInfo ######

  2. General

  3. Unique ID : 295408197618615327558093388258080738103 (0xDE3D8CA2EE1813F1D92355FF8E704B37)

  4. Complete name : My.Father's.Dragon.2022.1080p.NF.WEB-DL.H264.DDP5.1-TAGWEB.mkv

  5. Format : Matroska

  6. Format version : Version 4

  7. File size : 6.45 GiB

  8. Duration : 1 h 52 min

  9. Overall bit rate mode : Variable

  10. Overall bit rate : 8 221 kb/s

  11. Movie name : My.Fathers.Violin.2022.1080p.NF.WEB-DL.H264.DDP5.1-LeagueNF

  12. Encoded date : UTC 2022-11-23 16:35:29

  13. Writing application : mkvmerge v44.0.0 ('Domino') 64-bit

  14. Writing library : libebml v1.3.10 + libmatroska v1.5.2


  15. Video

  16. ID : 1

  17. Format : AVC

  18. Format/Info : Advanced Video Codec

  19. Format profile : [email protected]

  20. Format settings : CABAC / 4 Ref Frames

  21. Format settings, CABAC : Yes

  22. Format settings, Reference frames : 4 frames

  23. Codec ID : V_MPEG4/ISO/AVC

  24. Duration : 1 h 52 min

  25. Bit rate mode : Variable

  26. Bit rate : 1 814 kb/s

  27. Maximum bit rate : 20.0 Mb/s

  28. Width : 1 920 pixels

  29. Height : 1 080 pixels

  30. Display aspect ratio : 16:9

  31. Frame rate mode : Constant

  32. Frame rate : 24.000 FPS

  33. Color space : YUV

  34. Chroma subsampling : 4:2:0

  35. Bit depth : 8 bits

  36. Scan type : Progressive

  37. Bits/(Pixel*Frame) : 0.036

  38. Stream size : 1.42 GiB (22%)

  39. Writing library : x264 core 148 r2727 7d026e8

  40. Encoding settings : cabac=1 / ref=4 / deblock=1:0:0 / analyse=0x3:0x111 / me=umh / subme=10 / psy=1 / psy_rd=1.00:0.00 / mixed_ref=1 / me_range=120 / chroma_me=1 / trellis=2 / 8x8dct=1 / cqm=0 / deadzone=21,11 / fast_pskip=1 / chroma_qp_offset=-2 / threads=8 / lookahead_threads=2 / sliced_threads=0 / nr=0 / decimate=1 / interlaced=0 / NTMzNTQ= / bluray_compat=0 / stitchable=1 / constrained_intra=0 / bframes=16 / b_pyramid=2 / b_adapt=2 / b_bias=0 / direct=3 / weightb=1 / open_gop=0 / weightp=2 / keyint=240 / keyint_min=121 / scenecut=0 / intra_refresh=0 / rc_lookahead=240 / rc=crf / mbtree=1 / crf=18.0 / qcomp=0.50 / qpmin=6 / qpmax=51 / qpstep=4 / vbv_maxrate=20000 / vbv_bufsize=25000 / crf_max=0.0 / nal_hrd=vbr / filler=0 / NTMzNTQ=LmsMAP37EqsCpk / ip_ratio=1.40 / aq=1:0.80

  41. Default : Yes

  42. Forced : No


  43. Audio #1

  44. ID : 2

  45. Format : E-AC-3

  46. Format/Info : Enhanced AC-3

  47. Commercial name : Dolby Digital Plus

  48. Codec ID : A_EAC3

  49. Duration : 1 h 52 min

  50. Bit rate mode : Constant

  51. Bit rate : 640 kb/s

  52. Channel(s) : 6 channels

  53. Channel layout : L R C LFE Ls Rs

  54. Sampling rate : 48.0 kHz

  55. Frame rate : 31.250 FPS (1536 SPF)

  56. Compression mode : Lossy

  57. Stream size : 514 MiB (8%)

  58. Title : English

  59. Language : English

  60. Service kind : Complete Main

  61. Default : No

  62. Forced : No


  63. Audio #2

  64. ID : 3

  65. Format : E-AC-3

  66. Format/Info : Enhanced AC-3

  67. Commercial name : Dolby Digital Plus

  68. Codec ID : A_EAC3

  69. Duration : 1 h 52 min

  70. Bit rate mode : Constant

  71. Bit rate : 640 kb/s

  72. Channel(s) : 6 channels

  73. Channel layout : L R C LFE Ls Rs

  74. Sampling rate : 48.0 kHz

  75. Frame rate : 31.250 FPS (1536 SPF)

  76. Compression mode : Lossy

  77. Stream size : 514 MiB (8%)

  78. Title : ??????? (?????)

  79. Language : Arabic

  80. Service kind : Complete Main

  81. Default : No

  82. Forced : No


  83. Audio #3

  84. ID : 4

  85. Format : E-AC-3

  86. Format/Info : Enhanced AC-3

  87. Commercial name : Dolby Digital Plus

  88. Codec ID : A_EAC3

  89. Duration : 1 h 52 min

  90. Bit rate mode : Constant

  91. Bit rate : 640 kb/s

  92. Channel(s) : 6 channels

  93. Channel layout : L R C LFE Ls Rs

  94. Sampling rate : 48.0 kHz

  95. Frame rate : 31.250 FPS (1536 SPF)

  96. Compression mode : Lossy

  97. Stream size : 514 MiB (8%)

  98. Title : fran?ais

  99. Language : French

  100. Service kind : Complete Main

  101. Default : No

  102. Forced : No


  103. Audio #4

  104. ID : 5

  105. Format : E-AC-3

  106. Format/Info : Enhanced AC-3

  107. Commercial name : Dolby Digital Plus

  108. Codec ID : A_EAC3

  109. Duration : 1 h 52 min

  110. Bit rate mode : Constant

  111. Bit rate : 640 kb/s

  112. Channel(s) : 6 channels

  113. Channel layout : L R C LFE Ls Rs

  114. Sampling rate : 48.0 kHz

  115. Frame rate : 31.250 FPS (1536 SPF)

  116. Compression mode : Lossy

  117. Stream size : 514 MiB (8%)

  118. Title : Deutsch

  119. Language : German

  120. Service kind : Complete Main

  121. Default : No

  122. Forced : No


  123. Audio #5

  124. ID : 6

  125. Format : E-AC-3

  126. Format/Info : Enhanced AC-3

  127. Commercial name : Dolby Digital Plus

  128. Codec ID : A_EAC3

  129. Duration : 1 h 52 min

  130. Bit rate mode : Constant

  131. Bit rate : 640 kb/s

  132. Channel(s) : 6 channels

  133. Channel layout : L R C LFE Ls Rs

  134. Sampling rate : 48.0 kHz

  135. Frame rate : 31.250 FPS (1536 SPF)

  136. Compression mode : Lossy

  137. Stream size : 514 MiB (8%)

  138. Title : magyar nyelv

  139. Language : Hungarian

  140. Service kind : Complete Main

  141. Default : No

  142. Forced : No


  143. Audio #6

  144. ID : 7

  145. Format : E-AC-3

  146. Format/Info : Enhanced AC-3

  147. Commercial name : Dolby Digital Plus

  148. Codec ID : A_EAC3

  149. Duration : 1 h 52 min

  150. Bit rate mode : Constant

  151. Bit rate : 640 kb/s

  152. Channel(s) : 6 channels

  153. Channel layout : L R C LFE Ls Rs

  154. Sampling rate : 48.0 kHz

  155. Frame rate : 31.250 FPS (1536 SPF)

  156. Compression mode : Lossy

  157. Stream size : 514 MiB (8%)

  158. Title : j?zyk polski

  159. Language : Polish

  160. Service kind : Complete Main

  161. Default : No

  162. Forced : No


  163. Audio #7

  164. ID : 8

  165. Format : E-AC-3

  166. Format/Info : Enhanced AC-3

  167. Commercial name : Dolby Digital Plus

  168. Codec ID : A_EAC3

  169. Duration : 1 h 52 min

  170. Bit rate mode : Constant

  171. Bit rate : 640 kb/s

  172. Channel(s) : 6 channels

  173. Channel layout : L R C LFE Ls Rs

  174. Sampling rate : 48.0 kHz

  175. Frame rate : 31.250 FPS (1536 SPF)

  176. Compression mode : Lossy

  177. Stream size : 514 MiB (8%)

  178. Title : português do Brasil

  179. Language : Portuguese

  180. Service kind : Complete Main

  181. Default : No

  182. Forced : No


  183. Audio #8

  184. ID : 9

  185. Format : E-AC-3

  186. Format/Info : Enhanced AC-3

  187. Commercial name : Dolby Digital Plus

  188. Codec ID : A_EAC3

  189. Duration : 1 h 52 min

  190. Bit rate mode : Constant

  191. Bit rate : 640 kb/s

  192. Channel(s) : 6 channels

  193. Channel layout : L R C LFE Ls Rs

  194. Sampling rate : 48.0 kHz

  195. Frame rate : 31.250 FPS (1536 SPF)

  196. Compression mode : Lossy

  197. Stream size : 514 MiB (8%)

  198. Title : espa?ol

  199. Language : Spanish

  200. Service kind : Complete Main

  201. Default : No

  202. Forced : No


  203. Audio #9

  204. ID : 10

  205. Format : E-AC-3

  206. Format/Info : Enhanced AC-3

  207. Commercial name : Dolby Digital Plus

  208. Codec ID : A_EAC3

  209. Duration : 1 h 52 min

  210. Bit rate mode : Constant

  211. Bit rate : 640 kb/s

  212. Channel(s) : 6 channels

  213. Channel layout : L R C LFE Ls Rs

  214. Sampling rate : 48.0 kHz

  215. Frame rate : 31.250 FPS (1536 SPF)

  216. Compression mode : Lossy

  217. Stream size : 514 MiB (8%)

  218. Title : espa?ol (Europa)

  219. Language : Spanish

  220. Service kind : Complete Main

  221. Default : No

  222. Forced : No


  223. Audio #10

  224. ID : 11

  225. Format : E-AC-3

  226. Format/Info : Enhanced AC-3

  227. Commercial name : Dolby Digital Plus

  228. Codec ID : A_EAC3

  229. Duration : 1 h 52 min

  230. Bit rate mode : Constant

  231. Bit rate : 640 kb/s

  232. Channel(s) : 6 channels

  233. Channel layout : L R C LFE Ls Rs

  234. Sampling rate : 48.0 kHz

  235. Frame rate : 31.250 FPS (1536 SPF)

  236. Compression mode : Lossy

  237. Stream size : 514 MiB (8%)

  238. Title : Türk dili

  239. Language : Turkish

  240. Service kind : Complete Main

  241. Default : Yes

  242. Forced : No


  243. Text #1

  244. ID : 12

  245. Format : UTF-8

  246. Codec ID : S_TEXT/UTF8

  247. Codec ID/Info : UTF-8 Plain Text

  248. Duration : 1 h 51 min

  249. Bit rate : 44 b/s

  250. Count of elements : 1043

  251. Stream size : 36.5 KiB (0%)

  252. Title : 中文(简体)

  253. Language : Chinese

  254. Default : Yes

  255. Forced : No


  256. Text #2

  257. ID : 13

  258. Format : UTF-8

  259. Codec ID : S_TEXT/UTF8

  260. Codec ID/Info : UTF-8 Plain Text

  261. Duration : 1 h 51 min

  262. Bit rate : 44 b/s

  263. Count of elements : 1111

  264. Stream size : 36.0 KiB (0%)

  265. Title : 中文(繁體)

  266. Language : Chinese

  267. Default : No

  268. Forced : No


  269. Text #3

  270. ID : 14

  271. Format : UTF-8

  272. Codec ID : S_TEXT/UTF8

  273. Codec ID/Info : UTF-8 Plain Text

  274. Duration : 1 h 51 min

  275. Bit rate : 38 b/s

  276. Count of elements : 1048

  277. Stream size : 31.6 KiB (0%)

  278. Title : English

  279. Language : English

  280. Default : No

  281. Forced : No


  282. Text #4

  283. ID : 15

  284. Format : UTF-8

  285. Codec ID : S_TEXT/UTF8

  286. Codec ID/Info : UTF-8 Plain Text

  287. Duration : 1 h 51 min

  288. Bit rate : 75 b/s

  289. Count of elements : 1045

  290. Stream size : 61.5 KiB (0%)

  291. Title : ???????

  292. Language : Arabic

  293. Default : No

  294. Forced : No


  295. Text #5

  296. ID : 16

  297. Format : UTF-8

  298. Codec ID : S_TEXT/UTF8

  299. Codec ID/Info : UTF-8 Plain Text

  300. Duration : 1 h 51 min

  301. Bit rate : 36 b/s

  302. Count of elements : 1007

  303. Stream size : 29.5 KiB (0%)

  304. Title : hrvatski

  305. Language : Croatian

  306. Default : No

  307. Forced : No


  308. Text #6

  309. ID : 17

  310. Format : UTF-8

  311. Codec ID : S_TEXT/UTF8

  312. Codec ID/Info : UTF-8 Plain Text

  313. Duration : 1 h 51 min

  314. Bit rate : 38 b/s

  315. Count of elements : 1038

  316. Stream size : 31.5 KiB (0%)

  317. Title : ?e?tina

  318. Language : Czech

  319. Default : No

  320. Forced : No


  321. Text #7

  322. ID : 18

  323. Format : UTF-8

  324. Codec ID : S_TEXT/UTF8

  325. Codec ID/Info : UTF-8 Plain Text

  326. Duration : 1 h 51 min

  327. Bit rate : 37 b/s

  328. Count of elements : 995

  329. Stream size : 30.5 KiB (0%)

  330. Title : dansk

  331. Language : Danish

  332. Default : No

  333. Forced : No


  334. Text #8

  335. ID : 19

  336. Format : UTF-8

  337. Codec ID : S_TEXT/UTF8

  338. Codec ID/Info : UTF-8 Plain Text

  339. Duration : 1 h 51 min

  340. Bit rate : 38 b/s

  341. Count of elements : 945

  342. Stream size : 31.0 KiB (0%)

  343. Title : Nederlands

  344. Language : Dutch

  345. Default : No

  346. Forced : No


  347. Text #9

  348. ID : 20

  349. Format : UTF-8

  350. Codec ID : S_TEXT/UTF8

  351. Codec ID/Info : UTF-8 Plain Text

  352. Duration : 1 h 51 min

  353. Bit rate : 38 b/s

  354. Count of elements : 948

  355. Stream size : 31.2 KiB (0%)

  356. Title : suomi

  357. Language : Finnish

  358. Default : No

  359. Forced : No


  360. Text #10

  361. ID : 21

  362. Format : UTF-8

  363. Codec ID : S_TEXT/UTF8

  364. Codec ID/Info : UTF-8 Plain Text

  365. Duration : 1 h 51 min

  366. Bit rate : 39 b/s

  367. Count of elements : 1021

  368. Stream size : 31.9 KiB (0%)

  369. Title : fran?ais

  370. Language : French

  371. Default : No

  372. Forced : No


  373. Text #11

  374. ID : 22

  375. Format : UTF-8

  376. Codec ID : S_TEXT/UTF8

  377. Codec ID/Info : UTF-8 Plain Text

  378. Duration : 1 h 51 min

  379. Bit rate : 40 b/s

  380. Count of elements : 990

  381. Stream size : 32.9 KiB (0%)

  382. Title : Deutsch

  383. Language : German

  384. Default : No

  385. Forced : No


  386. Text #12

  387. ID : 23

  388. Format : UTF-8

  389. Codec ID : S_TEXT/UTF8

  390. Codec ID/Info : UTF-8 Plain Text

  391. Duration : 1 h 51 min

  392. Bit rate : 67 b/s

  393. Count of elements : 1026

  394. Stream size : 54.7 KiB (0%)

  395. Title : ελληνικ?

  396. Language : Greek

  397. Default : No

  398. Forced : No


  399. Text #13

  400. ID : 24

  401. Format : UTF-8

  402. Codec ID : S_TEXT/UTF8

  403. Codec ID/Info : UTF-8 Plain Text

  404. Duration : 1 h 48 min

  405. Bit rate : 62 b/s

  406. Count of elements : 1090

  407. Stream size : 49.8 KiB (0%)

  408. Title : ???????

  409. Language : Hebrew

  410. Default : No

  411. Forced : No


  412. Text #14

  413. ID : 25

  414. Format : UTF-8

  415. Codec ID : S_TEXT/UTF8

  416. Codec ID/Info : UTF-8 Plain Text

  417. Duration : 1 h 51 min

  418. Bit rate : 37 b/s

  419. Count of elements : 1041

  420. Stream size : 30.5 KiB (0%)

  421. Title : magyar nyelv

  422. Language : Hungarian

  423. Default : No

  424. Forced : No


  425. Text #15

  426. ID : 26

  427. Format : UTF-8

  428. Codec ID : S_TEXT/UTF8

  429. Codec ID/Info : UTF-8 Plain Text

  430. Duration : 1 h 51 min

  431. Bit rate : 39 b/s

  432. Count of elements : 1042

  433. Stream size : 32.0 KiB (0%)

  434. Title : bahasa Indonesia

  435. Language : Indonesian

  436. Default : No

  437. Forced : No


  438. Text #16

  439. ID : 27

  440. Format : UTF-8

  441. Codec ID : S_TEXT/UTF8

  442. Codec ID/Info : UTF-8 Plain Text

  443. Duration : 1 h 51 min

  444. Bit rate : 37 b/s

  445. Count of elements : 1037

  446. Stream size : 30.3 KiB (0%)

  447. Title : italiano

  448. Language : Italian

  449. Default : No

  450. Forced : No


  451. Text #17

  452. ID : 28

  453. Format : UTF-8

  454. Codec ID : S_TEXT/UTF8

  455. Codec ID/Info : UTF-8 Plain Text

  456. Duration : 1 h 51 min

  457. Bit rate : 39 b/s

  458. Count of elements : 1138

  459. Stream size : 31.9 KiB (0%)

  460. Title : 日本

  461. Language : Japanese

  462. Default : No

  463. Forced : No


  464. Text #18

  465. ID : 29

  466. Format : UTF-8

  467. Codec ID : S_TEXT/UTF8

  468. Codec ID/Info : UTF-8 Plain Text

  469. Duration : 1 h 51 min

  470. Bit rate : 51 b/s

  471. Count of elements : 1046

  472. Stream size : 42.0 KiB (0%)

  473. Title : ???

  474. Language : Korean

  475. Default : No

  476. Forced : No


  477. Text #19

  478. ID : 30

  479. Format : UTF-8

  480. Codec ID : S_TEXT/UTF8

  481. Codec ID/Info : UTF-8 Plain Text

  482. Duration : 1 h 51 min

  483. Bit rate : 38 b/s

  484. Count of elements : 1037

  485. Stream size : 31.6 KiB (0%)

  486. Title : bahasa Melayu

  487. Language : Malay

  488. Default : No

  489. Forced : No


  490. Text #20

  491. ID : 31

  492. Format : UTF-8

  493. Codec ID : S_TEXT/UTF8

  494. Codec ID/Info : UTF-8 Plain Text

  495. Duration : 1 h 48 min

  496. Bit rate : 40 b/s

  497. Count of elements : 830

  498. Stream size : 31.9 KiB (0%)

  499. Title : Bokm?l

  500. Language : Norwegian Bokmal

  501. Default : No

  502. Forced : No


  503. Text #21

  504. ID : 32

  505. Format : UTF-8

  506. Codec ID : S_TEXT/UTF8

  507. Codec ID/Info : UTF-8 Plain Text

  508. Duration : 1 h 49 min

  509. Bit rate : 37 b/s

  510. Count of elements : 1025

  511. Stream size : 30.3 KiB (0%)

  512. Title : j?zyk polski

  513. Language : Polish

  514. Default : No

  515. Forced : No


  516. Text #22

  517. ID : 33

  518. Format : UTF-8

  519. Codec ID : S_TEXT/UTF8

  520. Codec ID/Info : UTF-8 Plain Text

  521. Duration : 1 h 51 min

  522. Bit rate : 38 b/s

  523. Count of elements : 1032

  524. Stream size : 31.1 KiB (0%)

  525. Title : português

  526. Language : Portuguese

  527. Default : No

  528. Forced : No


  529. Text #23

  530. ID : 34

  531. Format : UTF-8

  532. Codec ID : S_TEXT/UTF8

  533. Codec ID/Info : UTF-8 Plain Text

  534. Duration : 1 h 51 min

  535. Bit rate : 39 b/s

  536. Count of elements : 1040

  537. Stream size : 31.8 KiB (0%)

  538. Title : português do Brasil

  539. Language : Portuguese

  540. Default : No

  541. Forced : No


  542. Text #24

  543. ID : 35

  544. Format : UTF-8

  545. Codec ID : S_TEXT/UTF8

  546. Codec ID/Info : UTF-8 Plain Text

  547. Duration : 1 h 51 min

  548. Bit rate : 44 b/s

  549. Count of elements : 960

  550. Stream size : 36.2 KiB (0%)

  551. Title : limba roman?

  552. Language : Romanian

  553. Default : No

  554. Forced : No


  555. Text #25

  556. ID : 36

  557. Format : UTF-8

  558. Codec ID : S_TEXT/UTF8

  559. Codec ID/Info : UTF-8 Plain Text

  560. Duration : 1 h 51 min

  561. Bit rate : 63 b/s

  562. Count of elements : 1037

  563. Stream size : 51.3 KiB (0%)

  564. Title : русский язык

  565. Language : Russian

  566. Default : No

  567. Forced : No


  568. Text #26

  569. ID : 37

  570. Format : UTF-8

  571. Codec ID : S_TEXT/UTF8

  572. Codec ID/Info : UTF-8 Plain Text

  573. Duration : 1 h 51 min

  574. Bit rate : 38 b/s

  575. Count of elements : 1040

  576. Stream size : 31.4 KiB (0%)

  577. Title : espa?ol

  578. Language : Spanish

  579. Default : No

  580. Forced : No


  581. Text #27

  582. ID : 38

  583. Format : UTF-8

  584. Codec ID : S_TEXT/UTF8

  585. Codec ID/Info : UTF-8 Plain Text

  586. Duration : 1 h 51 min

  587. Bit rate : 39 b/s

  588. Count of elements : 1028

  589. Stream size : 31.9 KiB (0%)

  590. Title : espa?ol (Europa)

  591. Language : Spanish

  592. Default : No

  593. Forced : No


  594. Text #28

  595. ID : 39

  596. Format : UTF-8

  597. Codec ID : S_TEXT/UTF8

  598. Codec ID/Info : UTF-8 Plain Text

  599. Duration : 1 h 51 min

  600. Bit rate : 38 b/s

  601. Count of elements : 905

  602. Stream size : 31.6 KiB (0%)

  603. Title : svenska

  604. Language : Swedish

  605. Default : No

  606. Forced : No


  607. Text #29

  608. ID : 40

  609. Format : UTF-8

  610. Codec ID : S_TEXT/UTF8

  611. Codec ID/Info : UTF-8 Plain Text

  612. Duration : 1 h 51 min

  613. Bit rate : 110 b/s

  614. Count of elements : 1044

  615. Stream size : 90.3 KiB (0%)

  616. Title : ???????

  617. Language : Thai

  618. Default : No

  619. Forced : No


  620. Text #30

  621. ID : 41

  622. Format : UTF-8

  623. Codec ID : S_TEXT/UTF8

  624. Codec ID/Info : UTF-8 Plain Text

  625. Duration : 1 h 48 min

  626. Bit rate : 59 b/s

  627. Count of elements : 1453

  628. Stream size : 47.2 KiB (0%)

  629. Title : Türk dili

  630. Language : Turkish

  631. Default : No

  632. Forced : No


  633. Text #31

  634. ID : 42

  635. Format : UTF-8

  636. Codec ID : S_TEXT/UTF8

  637. Codec ID/Info : UTF-8 Plain Text

  638. Duration : 1 h 51 min

  639. Bit rate : 64 b/s

  640. Count of elements : 1036

  641. Stream size : 52.4 KiB (0%)

  642. Title : укра??нська мо?ва

  643. Language : Ukrainian

  644. Default : No

  645. Forced : No


  646. Text #32

  647. ID : 43

  648. Format : UTF-8

  649. Codec ID : S_TEXT/UTF8

  650. Codec ID/Info : UTF-8 Plain Text

  651. Duration : 1 h 51 min

  652. Bit rate : 54 b/s

  653. Count of elements : 1040

  654. Stream size : 44.7 KiB (0%)

  655. Title : Ti?ng Vi?t

  656. Language : Vietnamese

  657. Default : No

  658. Forced : No




文件下载


除非特别注明,本文『我爸爸的小飞龙[简繁英字幕].My.Father's.Dragon.2022.1080p.NF.WEB-DL.H264.DDP5.1-TAGWEB 6.45GB』来源于互联网机器人自动抓取,非本站原创。 浮游电影网不对本文拥有版权,如有侵犯,请联系邮箱:fuyouu#yandex.com[#换成@]投诉。我们会在15个工作日内删除。 但烦请转载时请标明出处:“本文转载于『浮游电影网』,原文地址:https://www.fuyouu.com/22878.html

评论吧骚年!

发表你的见解   

昵称*

E-mail*(建议输入,以便收到博主回复的提示邮件)

验证码*

您可以使用eMule或eMule Mod(Windows)、aMule(Win、Linux、Mac)等软件下载eD2k链接。。
eMule收藏集(.emulecollection)文件是您选中的所有链接的列表文件。eMule可以直接下载它们。
按住SHIFT键选择可以选中多个选择框。
可用文件名和大小选择器来选择文件。
文件名选择器帮您根据文件名称或后缀来选择文件。不分大小写。
符号使用:
和:空格( )、+
不包含:-
或:|
转义:一对英文引号("");
匹配开头:^
匹配结尾:$
例如:
选中所有名称中包含有“eMule”或“0.49c”字眼,但不包含有“exe”字眼的:emule|0.49c -exe
选中所有名称的开头是“eMule”,结尾是“0.49c”的:^emule 0.49c$
选中所有名称中带有“eMule 0.49c”的(必须是“eMule 0.49c”,中间没有别的字符,不能是“eMule fake 0.49c”),需要转义:"emule 0.49c"
大小选择器帮您根据文件大小选择文件。