当前位置: 首页 >> 港台电影 >> 牧野诡事之卸岭力士[杜比视界版本][国语配音/中文字幕].Ghost.Blowing.Lamp.of.The.Popeye.Man.2022.2160p.WEB-DL.H265.DV.DDP2.0-N >> 正文

牧野诡事之卸岭力士[杜比视界版本][国语配音/中文字幕].Ghost.Blowing.Lamp.of.The.Popeye.Man.2022.2160p.WEB-DL.H265.DV.DDP2.0-N

2022年11月30日 09:33:28     电影发布:来源于网络     电影分类:港台电影     评论(0)    

牧野诡事之卸岭力士[杜比视界版本][国语配音/中文字幕].Ghost.Blowing.Lamp.of.The.Popeye.Man.2022.2160p.WEB-DL.H265.DV.DDP2.0-NUMTV 5.01GB

◎标 题 牧野诡事之卸岭力士

◎译 名 牧野诡事之卸甲虎王

◎年 代 2023

◎产 地 中国大陆

◎类 别 动作 / 冒险

◎语 言 汉语普通话

◎IMDb链接 https://www.imdb.com/title//

◎豆瓣链接 https://movie.douban.com/subject/35047670/

◎导 演 路云飞 Yunfei Lu

◎编 剧 天下霸唱 Muye Zhang

◎演 员 魏巍 Wei Wei

余澜 Lan Yu

李世鹏 Shipeng Li

袁祥仁 Cheung-Yan Yuen

吕一丁 Yiding Lü

赵岩松 Yansong Zhao

武艺杰

赵强

  1. ##### MediaInfo ######

  2. General

  3. Complete name : 牧野诡事之卸岭力士.Ghost.Blowing.Lamp.of.The.Popeye.Man.2022.2160p.WEB-DL.H265.DV.DDP2.0-NUMTV.mp4

  4. Format : MPEG-4

  5. Format profile : Base Media / Version 2

  6. Codec ID : mp42 (mp42/iso6/isom/msdh/dby1)

  7. File size : 5.01 GiB

  8. Duration : 1 h 26 min

  9. Overall bit rate mode : Variable

  10. Overall bit rate : 8 287 kb/s

  11. Encoded date : UTC 2022-11-29 06:25:07

  12. Tagged date : UTC 2022-11-29 06:25:07


  13. Video

  14. ID : 1

  15. Format : HEVC

  16. Format/Info : High Efficiency Video Coding

  17. Format profile : Main [email protected]@Main

  18. HDR format : Dolby Vision, Version 1.0, dvhe.05.06, BL+RPU

  19. Codec ID : dvhe

  20. Codec ID/Info : High Efficiency Video Coding with Dolby Vision

  21. Duration : 1 h 26 min

  22. Bit rate : 7 773 kb/s

  23. Width : 3 840 pixels

  24. Height : 1 600 pixels

  25. Display aspect ratio : 2.40:1

  26. Frame rate mode : Constant

  27. Frame rate : 25.000 FPS

  28. Color space : YUV

  29. Chroma subsampling : 4:2:0

  30. Bit depth : 10 bits

  31. Bits/(Pixel*Frame) : 0.051

  32. Stream size : 4.70 GiB (94%)

  33. Default : Yes

  34. Alternate group : 1

  35. Encoded date : UTC 2022-11-29 06:25:07

  36. Tagged date : UTC 2022-11-29 06:25:07

  37. Color range : Full

  38. Codec configuration box : hvcC+dvcC


  39. Audio #1

  40. ID : 2

  41. Format : E-AC-3

  42. Format/Info : Enhanced AC-3

  43. Commercial name : Dolby Digital Plus

  44. Codec ID : ac-3

  45. Duration : 1 h 26 min

  46. Bit rate mode : Constant

  47. Bit rate : 256 kb/s

  48. Channel(s) : 2 channels

  49. Channel layout : L R

  50. Sampling rate : 48.0 kHz

  51. Frame rate : 31.250 FPS (1536 SPF)

  52. Compression mode : Lossy

  53. Stream size : 159 MiB (3%)

  54. Language : Chinese

  55. Service kind : Complete Main

  56. Default : Yes

  57. Alternate group : 2

  58. Encoded date : UTC 2022-11-29 06:25:07

  59. Tagged date : UTC 2022-11-29 06:25:07


  60. Audio #2

  61. ID : 3

  62. Format : AAC LC

  63. Format/Info : Advanced Audio Codec Low Complexity

  64. Codec ID : mp4a-40-2

  65. Duration : 1 h 26 min

  66. Bit rate mode : Variable

  67. Bit rate : 253 kb/s

  68. Maximum bit rate : 259 kb/s

  69. Channel(s) : 2 channels

  70. Channel layout : L R

  71. Sampling rate : 48.0 kHz

  72. Frame rate : 46.875 FPS (1024 SPF)

  73. Compression mode : Lossy

  74. Stream size : 157 MiB (3%)

  75. Language : Chinese

  76. Default : No

  77. Alternate group : 2

  78. Encoded date : UTC 2022-11-29 06:25:07

  79. Tagged date : UTC 2022-11-29 06:25:07


复制代码



文件下载


除非特别注明,本文『牧野诡事之卸岭力士[杜比视界版本][国语配音/中文字幕].Ghost.Blowing.Lamp.of.The.Popeye.Man.2022.2160p.WEB-DL.H265.DV.DDP2.0-N』来源于互联网机器人自动抓取,非本站原创。 浮游电影网不对本文拥有版权,如有侵犯,请联系邮箱:fuyouu#yandex.com[#换成@]投诉。我们会在15个工作日内删除。 但烦请转载时请标明出处:“本文转载于『浮游电影网』,原文地址:https://www.fuyouu.com/22877.html

评论吧骚年!

发表你的见解   

昵称*

E-mail*(建议输入,以便收到博主回复的提示邮件)

验证码*

您可以使用eMule或eMule Mod(Windows)、aMule(Win、Linux、Mac)等软件下载eD2k链接。。
eMule收藏集(.emulecollection)文件是您选中的所有链接的列表文件。eMule可以直接下载它们。
按住SHIFT键选择可以选中多个选择框。
可用文件名和大小选择器来选择文件。
文件名选择器帮您根据文件名称或后缀来选择文件。不分大小写。
符号使用:
和:空格( )、+
不包含:-
或:|
转义:一对英文引号("");
匹配开头:^
匹配结尾:$
例如:
选中所有名称中包含有“eMule”或“0.49c”字眼,但不包含有“exe”字眼的:emule|0.49c -exe
选中所有名称的开头是“eMule”,结尾是“0.49c”的:^emule 0.49c$
选中所有名称中带有“eMule 0.49c”的(必须是“eMule 0.49c”,中间没有别的字符,不能是“eMule fake 0.49c”),需要转义:"emule 0.49c"
大小选择器帮您根据文件大小选择文件。