当前位置: 首页 >> 欧美电影 >> 黄金屋[简繁英字幕].Windfall.2022.1080p.NF.WEB-DL.DDP5.1.Atmos.H.264-DreamHD 4.72GB >> 正文

黄金屋[简繁英字幕].Windfall.2022.1080p.NF.WEB-DL.DDP5.1.Atmos.H.264-DreamHD 4.72GB

2022年11月27日 21:33:46     电影发布:来源于网络     电影分类:欧美电影     评论(0)    

◎标 题 黄金屋

◎译 名 意外之财(港)

◎片 名 Windfall

◎年 代 2022

◎产 地 美国

◎类 别 剧情 / 惊悚 / 犯罪

◎语 言 英语

◎上映日期 2022-03-18(美国网络)

◎IMDb评分 5.7/10 (19138人评价)

◎IMDb链接 https://www.imdb.com/title/tt15033192/

◎豆瓣评分 5.4/10 (1579人评价)

◎豆瓣链接 https://movie.douban.com/subject/35522484/

◎片 长 92分钟

◎导 演 查理·麦克道威尔 Charlie McDowell

◎编 剧 查理·麦克道威尔 Charlie McDowell

贾斯汀·莱徳 Justin Lader

杰森·席格尔 Jason Segel

安德鲁·凯文·沃克 Andrew Kevin Walker

◎演 员 莉莉·柯林斯 Lily Collins

杰西·普莱蒙 Jesse Plemons

杰森·席格尔 Jason Segel

奥马尔·莱瓦 Omar Leyva

◎简 介

Netflix拿下杰森·席格尔、莉莉·柯林斯、杰西·普莱蒙主演的惊悚片[意外之财](Windfall,暂译)全球发行权,据悉该笔交易金额高达8位数美元。影片由莉莉的未婚夫查理·麦克道威尔执导,麦克道威尔、席格尔创作了故事,贾斯汀·莱德([爱的就是你])、安德鲁·凯文·沃克([七宗罪])共同撰写剧本。该片是一部希区柯克式的惊悚片,讲述了一对年轻夫妇来到他们的度假屋,却发现那里已被洗劫。该片已于今年早些时候杀青。

  1. ##### MediaInfo ######

  2. General

  3. Unique ID : 21640789852773420413056024147743496158 (0x1047DD512AD476A73B835EA330EC57DE)

  4. Complete name : Windfall.2022.1080p.NF.WEB-DL.DDP5.1.Atmos.H.264-DreamHD.mkv

  5. Format : Matroska

  6. Format version : Version 4

  7. File size : 4.72 GiB

  8. Duration : 1 h 32 min

  9. Overall bit rate mode : Variable

  10. Overall bit rate : 7 313 kb/s

  11. Encoded date : UTC 2022-11-26 11:15:31

  12. Writing application : mkvmerge v71.1.0 ('Fortitude') 64-bit

  13. Writing library : libebml v1.4.4 + libmatroska v1.7.1


  14. Video

  15. ID : 1

  16. Format : AVC

  17. Format/Info : Advanced Video Codec

  18. Format profile : [email protected]

  19. Format settings : CABAC / 4 Ref Frames

  20. Format settings, CABAC : Yes

  21. Format settings, Reference frames : 4 frames

  22. Codec ID : V_MPEG4/ISO/AVC

  23. Duration : 1 h 32 min

  24. Bit rate mode : Variable

  25. Bit rate : 6 544 kb/s

  26. Maximum bit rate : 20.0 Mb/s

  27. Width : 1 920 pixels

  28. Height : 1 080 pixels

  29. Display aspect ratio : 16:9

  30. Frame rate mode : Constant

  31. Frame rate : 23.976 (24000/1001/53354) FPS

  32. Color space : YUV

  33. Chroma subsampling : 4:2:0

  34. Bit depth : 8 bits

  35. Scan type : Progressive

  36. Bits/(Pixel*Frame) : 0.132

  37. Stream size : 4.22 GiB (89%)

  38. Writing library : x264 core 148 r2727 7d026e8

  39. Encoding settings : cabac=1 / ref=4 / deblock=1:0:0 / analyse=0x3:0x111 / me=umh / subme=10 / psy=1 / psy_rd=1.00:0.00 / mixed_ref=1 / me_range=120 / chroma_me=1 / trellis=2 / 8x8dct=1 / cqm=0 / deadzone=21,11 / fast_pskip=1 / chroma_qp_offset=-2 / threads=8 / lookahead_threads=2 / sliced_threads=0 / nr=0 / decimate=1 / interlaced=0 / NTMzNTQ= / bluray_compat=0 / stitchable=1 / constrained_intra=0 / bframes=16 / b_pyramid=2 / b_adapt=2 / b_bias=0 / direct=3 / weightb=1 / open_gop=0 / weightp=2 / keyint=240 / keyint_min=121 / scenecut=0 / intra_refresh=0 / rc_lookahead=240 / rc=crf / mbtree=1 / crf=16.0 / qcomp=0.50 / qpmin=6 / qpmax=51 / qpstep=4 / vbv_maxrate=20000 / vbv_bufsize=25000 / crf_max=0.0 / nal_hrd=vbr / filler=0 / NTMzNTQ=LmsMAP37EqsCpk / ip_ratio=1.40 / aq=1:0.80

  40. Language : English

  41. Default : Yes

  42. Forced : No


  43. Audio

  44. ID : 2

  45. Format : E-AC-3 JOC

  46. Format/Info : Enhanced AC-3 with Joint Object Coding

  47. Commercial name : Dolby Digital Plus with Dolby Atmos

  48. Codec ID : A_EAC3

  49. Duration : 1 h 32 min

  50. Bit rate mode : Constant

  51. Bit rate : 768 kb/s

  52. Channel(s) : 6 channels

  53. Channel layout : L R C LFE Ls Rs

  54. Sampling rate : 48.0 kHz

  55. Frame rate : 31.250 FPS (1536 SPF)

  56. Compression mode : Lossy

  57. Stream size : 508 MiB (11%)

  58. Language : English

  59. Service kind : Complete Main

  60. Default : Yes

  61. Forced : No

  62. Complexity index : 16

  63. Number of dynamic objects : 15

  64. Bed channel count : 1 channel

  65. Bed channel configuration : LFE


  66. Text #1

  67. ID : 3

  68. Format : UTF-8

  69. Codec ID : S_TEXT/UTF8

  70. Codec ID/Info : UTF-8 Plain Text

  71. Duration : 1 h 27 min

  72. Bit rate : 51 b/s

  73. Count of elements : 1056

  74. Stream size : 33.1 KiB (0%)

  75. Title : SDH

  76. Language : English

  77. Default : No

  78. Forced : No


  79. Text #2

  80. ID : 4

  81. Format : UTF-8

  82. Codec ID : S_TEXT/UTF8

  83. Codec ID/Info : UTF-8 Plain Text

  84. Duration : 1 h 30 min

  85. Bit rate : 42 b/s

  86. Count of elements : 830

  87. Stream size : 28.5 KiB (0%)

  88. Title : Simplified

  89. Language : Chinese

  90. Default : No

  91. Forced : No


  92. Text #3

  93. ID : 5

  94. Format : UTF-8

  95. Codec ID : S_TEXT/UTF8

  96. Codec ID/Info : UTF-8 Plain Text

  97. Duration : 1 h 30 min

  98. Bit rate : 39 b/s

  99. Count of elements : 921

  100. Stream size : 26.5 KiB (0%)

  101. Title : Traditional

  102. Language : Chinese

  103. Default : No

  104. Forced : No


复制代码



文件下载


除非特别注明,本文『黄金屋[简繁英字幕].Windfall.2022.1080p.NF.WEB-DL.DDP5.1.Atmos.H.264-DreamHD 4.72GB』来源于互联网机器人自动抓取,非本站原创。 浮游电影网不对本文拥有版权,如有侵犯,请联系邮箱:fuyouu#yandex.com[#换成@]投诉。我们会在15个工作日内删除。 但烦请转载时请标明出处:“本文转载于『浮游电影网』,原文地址:https://www.fuyouu.com/22875.html

评论吧骚年!

发表你的见解   

昵称*

E-mail*(建议输入,以便收到博主回复的提示邮件)

验证码*

您可以使用eMule或eMule Mod(Windows)、aMule(Win、Linux、Mac)等软件下载eD2k链接。。
eMule收藏集(.emulecollection)文件是您选中的所有链接的列表文件。eMule可以直接下载它们。
按住SHIFT键选择可以选中多个选择框。
可用文件名和大小选择器来选择文件。
文件名选择器帮您根据文件名称或后缀来选择文件。不分大小写。
符号使用:
和:空格( )、+
不包含:-
或:|
转义:一对英文引号("");
匹配开头:^
匹配结尾:$
例如:
选中所有名称中包含有“eMule”或“0.49c”字眼,但不包含有“exe”字眼的:emule|0.49c -exe
选中所有名称的开头是“eMule”,结尾是“0.49c”的:^emule 0.49c$
选中所有名称中带有“eMule 0.49c”的(必须是“eMule 0.49c”,中间没有别的字符,不能是“eMule fake 0.49c”),需要转义:"emule 0.49c"
大小选择器帮您根据文件大小选择文件。