当前位置: 首页 >> 港台电影 >> 看海[国语音轨/简繁英字幕].To.the.Sea.2021.1080p.WEB-DL.x264.AAC-MOMOWEB 0.89GB >> 正文

看海[国语音轨/简繁英字幕].To.the.Sea.2021.1080p.WEB-DL.x264.AAC-MOMOWEB 0.89GB

2022年11月27日 21:33:01     电影发布:来源于网络     电影分类:港台电影     评论(0)    

◎标 题 看海

◎译 名 To the Sea

◎年 代 2021

◎产 地 中国台湾

◎类 别 剧情 / 短片

◎语 言 汉语普通话

◎上映日期 2021-10-23(高雄电影节) / 2022-11-11(台北金马影展)

◎IMDb链接 https://www.imdb.com/title/tt16085722/

◎豆瓣链接 https://movie.douban.com/subject/35606188/

◎片 长 25分钟

◎导 演 林柏瑜 Po-Yu Lin

◎编 剧 林柏瑜 Po-Yu Lin

◎演 员 陆弈静 Yi-Ching Lu

黄迪扬 Di-Yang Huang

◎简 介

年邁的母親獨自扶養智能障礙的兒子長達三十多年,久病纏身的她已經相當疲憊了。這天,母親騎著機車,載著喜歡看海的兒子來到海邊。母親哄著兒子一起走向大海,走向兩人生命的終點。

  1. ##### MediaInfo ######

  2. General

  3. Unique ID : 268437804722683656791231254046859681567 (0xC9F33D9A10B37E148093EEBF1EED5F1F)

  4. Complete name : To.the.Sea.2021.1080p.WEB-DL.x264.AAC-MOMOWEB.mkv

  5. Format : Matroska

  6. Format version : Version 4

  7. File size : 914 MiB

  8. Duration : 25 min 0 s

  9. Overall bit rate : 5 110 kb/s

  10. Encoded date : UTC 2022-11-18 21:37:46

  11. Writing application : mkvmerge v68.0.0 ('The Curtain') 64-bit

  12. Writing library : libebml v1.4.2 + libmatroska v1.6.4


  13. Video

  14. ID : 1

  15. Format : AVC

  16. Format/Info : Advanced Video Codec

  17. Format profile : [email protected]

  18. Format settings : CABAC / 5 Ref Frames

  19. Format settings, CABAC : Yes

  20. Format settings, Reference frames : 5 frames

  21. Codec ID : V_MPEG4/ISO/AVC

  22. Duration : 25 min 0 s

  23. Bit rate : 5 000 kb/s

  24. Width : 1 920 pixels

  25. Height : 1 080 pixels

  26. Display aspect ratio : 16:9

  27. Frame rate mode : Constant

  28. Frame rate : 24.000 FPS

  29. Color space : YUV

  30. Chroma subsampling : 4:2:0

  31. Bit depth : 8 bits

  32. Scan type : Progressive

  33. Bits/(Pixel*Frame) : 0.100

  34. Stream size : 879 MiB (96%)

  35. Writing library : x264 core 157 r2980+6 8ce8012

  36. Encoding settings : cabac=1 / ref=5 / deblock=1:0:0 / analyse=0x3:0x113 / me=umh / subme=9 / psy=1 / psy_rd=1.00:0.00 / mixed_ref=1 / me_range=32 / chroma_me=1 / trellis=1 / 8x8dct=1 / cqm=0 / deadzone=21,11 / fast_pskip=1 / chroma_qp_offset=-2 / threads=16 / lookahead_threads=1 / sliced_threads=0 / nr=0 / decimate=1 / interlaced=0 / NTMzNTQ= / bluray_compat=0 / stitchable=1 / constrained_intra=0 / bframes=3 / b_pyramid=2 / b_adapt=1 / b_bias=0 / direct=3 / weightb=1 / open_gop=0 / weightp=2 / keyint=48 / keyint_min=25 / scenecut=0 / intra_refresh=0 / rc_lookahead=40 / rc=abr / mbtree=1 / bitrate=5000 / ratetol=1.0 / qcomp=0.60 / qpmin=0 / qpmax=69 / qpstep=4 / vbv_maxrate=7500 / vbv_bufsize=11250 / nal_hrd=none / filler=0 / NTMzNTQ=LmsMAP37EqsCpk / ip_ratio=1.40 / aq=1:1.00

  37. Default : Yes

  38. Forced : No


  39. Audio

  40. ID : 2

  41. Format : AAC LC

  42. Format/Info : Advanced Audio Codec Low Complexity

  43. Codec ID : A_AAC-2

  44. Duration : 25 min 0 s

  45. Bit rate : 192 kb/s

  46. Channel(s) : 2 channels

  47. Channel layout : L R

  48. Sampling rate : 44.1 kHz

  49. Frame rate : 43.066 FPS (1024 SPF)

  50. Compression mode : Lossy

  51. Stream size : 34.3 MiB (4%)

  52. Title : Chinese

  53. Language : Chinese

  54. Default : Yes

  55. Forced : No


  56. Text #1

  57. ID : 3

  58. Format : UTF-8

  59. Codec ID : S_TEXT/UTF8

  60. Codec ID/Info : UTF-8 Plain Text

  61. Duration : 18 min 25 s

  62. Bit rate : 6 b/s

  63. Count of elements : 67

  64. Stream size : 898 Bytes (0%)

  65. Title : Simplified Chinese

  66. Language : Chinese

  67. Default : Yes

  68. Forced : No


  69. Text #2

  70. ID : 4

  71. Format : UTF-8

  72. Codec ID : S_TEXT/UTF8

  73. Codec ID/Info : UTF-8 Plain Text

  74. Duration : 18 min 25 s

  75. Bit rate : 6 b/s

  76. Count of elements : 67

  77. Stream size : 898 Bytes (0%)

  78. Title : Traditional Chinese

  79. Language : Chinese

  80. Default : Yes

  81. Forced : No


  82. Text #3

  83. ID : 5

  84. Format : UTF-8

  85. Codec ID : S_TEXT/UTF8

  86. Codec ID/Info : UTF-8 Plain Text

  87. Duration : 18 min 25 s

  88. Bit rate : 7 b/s

  89. Count of elements : 67

  90. Stream size : 979 Bytes (0%)

  91. Title : English

  92. Language : English

  93. Default : Yes

  94. Forced : No


复制代码



文件下载


除非特别注明,本文『看海[国语音轨/简繁英字幕].To.the.Sea.2021.1080p.WEB-DL.x264.AAC-MOMOWEB 0.89GB』来源于互联网机器人自动抓取,非本站原创。 浮游电影网不对本文拥有版权,如有侵犯,请联系邮箱:fuyouu#yandex.com[#换成@]投诉。我们会在15个工作日内删除。 但烦请转载时请标明出处:“本文转载于『浮游电影网』,原文地址:https://www.fuyouu.com/22874.html

评论吧骚年!

发表你的见解   

昵称*

E-mail*(建议输入,以便收到博主回复的提示邮件)

验证码*

您可以使用eMule或eMule Mod(Windows)、aMule(Win、Linux、Mac)等软件下载eD2k链接。。
eMule收藏集(.emulecollection)文件是您选中的所有链接的列表文件。eMule可以直接下载它们。
按住SHIFT键选择可以选中多个选择框。
可用文件名和大小选择器来选择文件。
文件名选择器帮您根据文件名称或后缀来选择文件。不分大小写。
符号使用:
和:空格( )、+
不包含:-
或:|
转义:一对英文引号("");
匹配开头:^
匹配结尾:$
例如:
选中所有名称中包含有“eMule”或“0.49c”字眼,但不包含有“exe”字眼的:emule|0.49c -exe
选中所有名称的开头是“eMule”,结尾是“0.49c”的:^emule 0.49c$
选中所有名称中带有“eMule 0.49c”的(必须是“eMule 0.49c”,中间没有别的字符,不能是“eMule fake 0.49c”),需要转义:"emule 0.49c"
大小选择器帮您根据文件大小选择文件。