当前位置: 首页 >> 国产电影 >> 巨鳄2[杜比视界版本][国语配音/中文字幕].Mega.Crocodile.II.2022.2160p.WEB-DL.H265.DV.DDP2.0-NUMTV 5.82GB >> 正文

巨鳄2[杜比视界版本][国语配音/中文字幕].Mega.Crocodile.II.2022.2160p.WEB-DL.H265.DV.DDP2.0-NUMTV 5.82GB

2022年11月26日 16:27:46     电影发布:来源于网络     电影分类:国产电影     评论(0)    

◎标 题 巨鳄2

◎年 代 2022

◎产 地 中国大陆

◎类 别 动作 / 惊悚 / 冒险

◎语 言 汉语普通话

◎上映日期 2022-11-23(中国大陆网络)

◎IMDb链接 https://www.imdb.com/title//

◎豆瓣链接 https://movie.douban.com/subject/36163042/

◎导 演 富贵 Fugui

◎演 员 熊欣欣 Xinxin Xiong

陈冠英 Guanying Chen

魏笑 Xiao Wei

◎简 介

凶残巨鳄嗜血来袭,平静的民国小镇陷入一级恐慌,面对巨鳄的无差别攻击,众人能否成功将其制服?

  1. ##### MediaInfo ######

  2. General

  3. Complete name : 巨鳄2.Mega.Crocodile.II.2022.2160p.WEB-DL.H265.DV.DDP2.0-NUMTV.mp4

  4. Format : MPEG-4

  5. Format profile : Base Media / Version 2

  6. Codec ID : mp42 (mp42/iso6/isom/msdh/dby1)

  7. File size : 5.81 GiB

  8. Duration : 1 h 38 min

  9. Overall bit rate mode : Variable

  10. Overall bit rate : 8 454 kb/s

  11. Encoded date : UTC 2022-11-25 05:02:40

  12. Tagged date : UTC 2022-11-25 05:02:40


  13. Video

  14. ID : 1

  15. Format : HEVC

  16. Format/Info : High Efficiency Video Coding

  17. Format profile : Main [email protected]@Main

  18. HDR format : Dolby Vision, Version 1.0, dvhe.05.06, BL+RPU

  19. Codec ID : dvhe

  20. Codec ID/Info : High Efficiency Video Coding with Dolby Vision

  21. Duration : 1 h 38 min

  22. Bit rate : 7 940 kb/s

  23. Width : 3 840 pixels

  24. Height : 1 552 pixels

  25. Original height : 1 548 pixels

  26. Display aspect ratio : 2.481

  27. Frame rate mode : Constant

  28. Frame rate : 24.000 FPS

  29. Color space : YUV

  30. Chroma subsampling : 4:2:0

  31. Bit depth : 10 bits

  32. Bits/(Pixel*Frame) : 0.056

  33. Stream size : 5.46 GiB (94%)

  34. Default : Yes

  35. Alternate group : 1

  36. Encoded date : UTC 2022-11-25 05:02:40

  37. Tagged date : UTC 2022-11-25 05:02:40

  38. Color range : Full

  39. Codec configuration box : hvcC+dvcC


  40. Audio #1

  41. ID : 2

  42. Format : E-AC-3

  43. Format/Info : Enhanced AC-3

  44. Commercial name : Dolby Digital Plus

  45. Codec ID : ac-3

  46. Duration : 1 h 38 min

  47. Bit rate mode : Constant

  48. Bit rate : 256 kb/s

  49. Channel(s) : 2 channels

  50. Channel layout : L R

  51. Sampling rate : 48.0 kHz

  52. Frame rate : 31.250 FPS (1536 SPF)

  53. Compression mode : Lossy

  54. Stream size : 180 MiB (3%)

  55. Language : Chinese

  56. Service kind : Complete Main

  57. Default : Yes

  58. Alternate group : 2

  59. Encoded date : UTC 2022-11-25 05:02:40

  60. Tagged date : UTC 2022-11-25 05:02:40


  61. Audio #2

  62. ID : 3

  63. Format : AAC LC

  64. Format/Info : Advanced Audio Codec Low Complexity

  65. Codec ID : mp4a-40-2

  66. Duration : 1 h 38 min

  67. Bit rate mode : Variable

  68. Bit rate : 253 kb/s

  69. Maximum bit rate : 258 kb/s

  70. Channel(s) : 2 channels

  71. Channel layout : L R

  72. Sampling rate : 48.0 kHz

  73. Frame rate : 46.875 FPS (1024 SPF)

  74. Compression mode : Lossy

  75. Stream size : 178 MiB (3%)

  76. Language : Chinese

  77. Default : No

  78. Alternate group : 2

  79. Encoded date : UTC 2022-11-25 05:02:40

  80. Tagged date : UTC 2022-11-25 05:02:40


复制代码





文件下载


除非特别注明,本文『巨鳄2[杜比视界版本][国语配音/中文字幕].Mega.Crocodile.II.2022.2160p.WEB-DL.H265.DV.DDP2.0-NUMTV 5.82GB』来源于互联网机器人自动抓取,非本站原创。 浮游电影网不对本文拥有版权,如有侵犯,请联系邮箱:fuyouu#yandex.com[#换成@]投诉。我们会在15个工作日内删除。 但烦请转载时请标明出处:“本文转载于『浮游电影网』,原文地址:https://www.fuyouu.com/22873.html

评论吧骚年!

发表你的见解   

昵称*

E-mail*(建议输入,以便收到博主回复的提示邮件)

验证码*

您可以使用eMule或eMule Mod(Windows)、aMule(Win、Linux、Mac)等软件下载eD2k链接。。
eMule收藏集(.emulecollection)文件是您选中的所有链接的列表文件。eMule可以直接下载它们。
按住SHIFT键选择可以选中多个选择框。
可用文件名和大小选择器来选择文件。
文件名选择器帮您根据文件名称或后缀来选择文件。不分大小写。
符号使用:
和:空格( )、+
不包含:-
或:|
转义:一对英文引号("");
匹配开头:^
匹配结尾:$
例如:
选中所有名称中包含有“eMule”或“0.49c”字眼,但不包含有“exe”字眼的:emule|0.49c -exe
选中所有名称的开头是“eMule”,结尾是“0.49c”的:^emule 0.49c$
选中所有名称中带有“eMule 0.49c”的(必须是“eMule 0.49c”,中间没有别的字符,不能是“eMule fake 0.49c”),需要转义:"emule 0.49c"
大小选择器帮您根据文件大小选择文件。