当前位置: 首页 >> 海外电影 >> 洗劫墨索里尼[简繁英字幕].Robbing.Mussolini.2022.1080p.NF.WEB-DL.x264.DDP5.1-MOMOWEB 1.96GB >> 正文

洗劫墨索里尼[简繁英字幕].Robbing.Mussolini.2022.1080p.NF.WEB-DL.x264.DDP5.1-MOMOWEB 1.96GB

2022年11月26日 16:27:04     电影发布:来源于网络     电影分类:海外电影     评论(0)    

◎标 题 洗劫墨索里尼

◎译 名 Robbing Mussolini

◎片 名 Rapiniamo il Duce

◎年 代 2022

◎产 地 意大利

◎类 别 剧情

◎语 言 意大利语

◎上映日期 2022-10-26(意大利)

◎IMDb评分 5.6/10 (22人评价)

◎IMDb链接 https://www.imdb.com/title/tt14270848/

◎豆瓣链接 https://movie.douban.com/subject/35464853/

◎片 长 90分钟

◎导 演 雷纳托·德·马里亚 Renato De Maria

◎编 剧 雷纳托·德·马里亚 Renato De Maria

◎演 员 马蒂尔达·德·安杰利斯 Matilda De Angelis

托马索·拉尼奥 Tommaso Ragno

彼得洛·卡斯特里图 Pietro Castellitto

◎简 介

A Milanese wartime entrepreneur forms a band of misfits and rogues to stage an elaborate heist of a legendary treasure belonging to Benito Mussolini.

  1. ##### MediaInfo ######

  2. General

  3. Unique ID : 268658267968906207661252077648563880489 (0xCA1DB34770E34A851D2B9F352D0B4229)

  4. Complete name : Robbing.Mussolini.2022.1080p.NF.WEB-DL.x264.DDP5.1-MOMOWEB.mkv

  5. Format : Matroska

  6. Format version : Version 4

  7. File size : 1.96 GiB

  8. Duration : 1 h 39 min

  9. Overall bit rate mode : Variable

  10. Overall bit rate : 2 810 kb/s

  11. Movie name : Robbing.Mussolini.2022.1080p.NF.WEB-DL.x264.DDP5.1-PTerWEB

  12. Encoded date : UTC 2022-11-25 04:08:17

  13. Writing application : mkvmerge v72.0.0 ('Minuano (Six-eight)') 64-bit

  14. Writing library : libebml v1.4.4 + libmatroska v1.7.1


  15. Video

  16. ID : 1

  17. Format : AVC

  18. Format/Info : Advanced Video Codec

  19. Format profile : [email protected]

  20. Format settings : CABAC / 4 Ref Frames

  21. Format settings, CABAC : Yes

  22. Format settings, Reference frames : 4 frames

  23. Codec ID : V_MPEG4/ISO/AVC

  24. Duration : 1 h 39 min

  25. Bit rate mode : Variable

  26. Bit rate : 2 166 kb/s

  27. Maximum bit rate : 20.0 Mb/s

  28. Width : 1 920 pixels

  29. Height : 1 080 pixels

  30. Display aspect ratio : 16:9

  31. Frame rate mode : Constant

  32. Frame rate : 24.000 FPS

  33. Color space : YUV

  34. Chroma subsampling : 4:2:0

  35. Bit depth : 8 bits

  36. Scan type : Progressive

  37. Bits/(Pixel*Frame) : 0.044

  38. Stream size : 1.51 GiB (77%)

  39. Writing library : x264 core 148 r2727 7d026e8

  40. Encoding settings : cabac=1 / ref=4 / deblock=1:0:0 / analyse=0x3:0x111 / me=umh / subme=10 / psy=1 / psy_rd=1.00:0.00 / mixed_ref=1 / me_range=120 / chroma_me=1 / trellis=2 / 8x8dct=1 / cqm=0 / deadzone=21,11 / fast_pskip=1 / chroma_qp_offset=-2 / threads=8 / lookahead_threads=2 / sliced_threads=0 / nr=0 / decimate=1 / interlaced=0 / NTMzNTQ= / bluray_compat=0 / stitchable=1 / constrained_intra=0 / bframes=16 / b_pyramid=2 / b_adapt=2 / b_bias=0 / direct=3 / weightb=1 / open_gop=0 / weightp=2 / keyint=240 / keyint_min=121 / scenecut=0 / intra_refresh=0 / rc_lookahead=240 / rc=crf / mbtree=1 / crf=16.0 / qcomp=0.50 / qpmin=6 / qpmax=51 / qpstep=4 / vbv_maxrate=20000 / vbv_bufsize=25000 / crf_max=0.0 / nal_hrd=vbr / filler=0 / NTMzNTQ=LmsMAP37EqsCpk / ip_ratio=1.40 / aq=1:0.80

  41. Default : Yes

  42. Forced : No


  43. Audio

  44. ID : 2

  45. Format : E-AC-3

  46. Format/Info : Enhanced AC-3

  47. Commercial name : Dolby Digital Plus

  48. Codec ID : A_EAC3

  49. Duration : 1 h 39 min

  50. Bit rate mode : Constant

  51. Bit rate : 640 kb/s

  52. Channel(s) : 6 channels

  53. Channel layout : L R C LFE Ls Rs

  54. Sampling rate : 48.0 kHz

  55. Frame rate : 31.250 FPS (1536 SPF)

  56. Compression mode : Lossy

  57. Stream size : 457 MiB (23%)

  58. Language : Italian

  59. Service kind : Complete Main

  60. Default : Yes

  61. Forced : No


  62. Text #1

  63. ID : 3

  64. Format : UTF-8

  65. Codec ID : S_TEXT/UTF8

  66. Codec ID/Info : UTF-8 Plain Text

  67. Duration : 1 h 37 min

  68. Bit rate : 58 b/s

  69. Count of elements : 961

  70. Stream size : 41.8 KiB (0%)

  71. Language : Arabic

  72. Default : No

  73. Forced : No


  74. Text #2

  75. ID : 4

  76. Format : UTF-8

  77. Codec ID : S_TEXT/UTF8

  78. Codec ID/Info : UTF-8 Plain Text

  79. Duration : 1 h 37 min

  80. Bit rate : 33 b/s

  81. Count of elements : 857

  82. Stream size : 23.7 KiB (0%)

  83. Language : Czech

  84. Default : No

  85. Forced : No


  86. Text #3

  87. ID : 5

  88. Format : UTF-8

  89. Codec ID : S_TEXT/UTF8

  90. Codec ID/Info : UTF-8 Plain Text

  91. Duration : 1 h 37 min

  92. Bit rate : 34 b/s

  93. Count of elements : 930

  94. Stream size : 24.7 KiB (0%)

  95. Language : Danish

  96. Default : No

  97. Forced : No


  98. Text #4

  99. ID : 6

  100. Format : UTF-8

  101. Codec ID : S_TEXT/UTF8

  102. Codec ID/Info : UTF-8 Plain Text

  103. Duration : 1 h 37 min

  104. Bit rate : 33 b/s

  105. Count of elements : 951

  106. Stream size : 24.0 KiB (0%)

  107. Language : German

  108. Default : No

  109. Forced : No


  110. Text #5

  111. ID : 7

  112. Format : UTF-8

  113. Codec ID : S_TEXT/UTF8

  114. Codec ID/Info : UTF-8 Plain Text

  115. Duration : 1 h 37 min

  116. Bit rate : 57 b/s

  117. Count of elements : 918

  118. Stream size : 41.2 KiB (0%)

  119. Language : Greek

  120. Default : No

  121. Forced : No


  122. Text #6

  123. ID : 8

  124. Format : UTF-8

  125. Codec ID : S_TEXT/UTF8

  126. Codec ID/Info : UTF-8 Plain Text

  127. Duration : 1 h 33 min

  128. Bit rate : 1 b/s

  129. Count of elements : 42

  130. Stream size : 1.21 KiB (0%)

  131. Title : Forced

  132. Language : English

  133. Default : No

  134. Forced : No


  135. Text #7

  136. ID : 9

  137. Format : UTF-8

  138. Codec ID : S_TEXT/UTF8

  139. Codec ID/Info : UTF-8 Plain Text

  140. Duration : 1 h 33 min

  141. Bit rate : 40 b/s

  142. Count of elements : 911

  143. Stream size : 27.8 KiB (0%)

  144. Language : English

  145. Default : No

  146. Forced : No


  147. Text #8

  148. ID : 10

  149. Format : UTF-8

  150. Codec ID : S_TEXT/UTF8

  151. Codec ID/Info : UTF-8 Plain Text

  152. Duration : 1 h 37 min

  153. Bit rate : 51 b/s

  154. Count of elements : 1277

  155. Stream size : 37.1 KiB (0%)

  156. Title : SDH

  157. Language : English

  158. Default : No

  159. Forced : No


  160. Text #9

  161. ID : 11

  162. Format : UTF-8

  163. Codec ID : S_TEXT/UTF8

  164. Codec ID/Info : UTF-8 Plain Text

  165. Duration : 1 h 37 min

  166. Bit rate : 33 b/s

  167. Count of elements : 942

  168. Stream size : 24.1 KiB (0%)

  169. Title : Espa?a

  170. Language : Spanish

  171. Default : No

  172. Forced : No


  173. Text #10

  174. ID : 12

  175. Format : UTF-8

  176. Codec ID : S_TEXT/UTF8

  177. Codec ID/Info : UTF-8 Plain Text

  178. Duration : 1 h 37 min

  179. Bit rate : 33 b/s

  180. Count of elements : 941

  181. Stream size : 23.9 KiB (0%)

  182. Title : Latinoamérica

  183. Language : Spanish

  184. Default : No

  185. Forced : No


  186. Text #11

  187. ID : 13

  188. Format : UTF-8

  189. Codec ID : S_TEXT/UTF8

  190. Codec ID/Info : UTF-8 Plain Text

  191. Duration : 1 h 37 min

  192. Bit rate : 32 b/s

  193. Count of elements : 832

  194. Stream size : 23.6 KiB (0%)

  195. Language : Finnish

  196. Default : No

  197. Forced : No


  198. Text #12

  199. ID : 14

  200. Format : UTF-8

  201. Codec ID : S_TEXT/UTF8

  202. Codec ID/Info : UTF-8 Plain Text

  203. Duration : 1 h 37 min

  204. Bit rate : 34 b/s

  205. Count of elements : 930

  206. Stream size : 25.0 KiB (0%)

  207. Language : fil

  208. Default : No

  209. Forced : No


  210. Text #13

  211. ID : 15

  212. Format : UTF-8

  213. Codec ID : S_TEXT/UTF8

  214. Codec ID/Info : UTF-8 Plain Text

  215. Duration : 1 h 37 min

  216. Bit rate : 34 b/s

  217. Count of elements : 898

  218. Stream size : 24.6 KiB (0%)

  219. Language : French

  220. Default : No

  221. Forced : No


  222. Text #14

  223. ID : 16

  224. Format : UTF-8

  225. Codec ID : S_TEXT/UTF8

  226. Codec ID/Info : UTF-8 Plain Text

  227. Duration : 1 h 37 min

  228. Bit rate : 33 b/s

  229. Count of elements : 928

  230. Stream size : 24.0 KiB (0%)

  231. Language : Galician

  232. Default : No

  233. Forced : No


  234. Text #15

  235. ID : 17

  236. Format : UTF-8

  237. Codec ID : S_TEXT/UTF8

  238. Codec ID/Info : UTF-8 Plain Text

  239. Duration : 1 h 37 min

  240. Bit rate : 54 b/s

  241. Count of elements : 954

  242. Stream size : 39.4 KiB (0%)

  243. Language : Hebrew

  244. Default : No

  245. Forced : No


  246. Text #16

  247. ID : 18

  248. Format : UTF-8

  249. Codec ID : S_TEXT/UTF8

  250. Codec ID/Info : UTF-8 Plain Text

  251. Duration : 1 h 37 min

  252. Bit rate : 29 b/s

  253. Count of elements : 930

  254. Stream size : 21.5 KiB (0%)

  255. Language : Croatian

  256. Default : No

  257. Forced : No


  258. Text #17

  259. ID : 19

  260. Format : UTF-8

  261. Codec ID : S_TEXT/UTF8

  262. Codec ID/Info : UTF-8 Plain Text

  263. Duration : 1 h 37 min

  264. Bit rate : 32 b/s

  265. Count of elements : 954

  266. Stream size : 23.0 KiB (0%)

  267. Language : Hungarian

  268. Default : No

  269. Forced : No


  270. Text #18

  271. ID : 20

  272. Format : UTF-8

  273. Codec ID : S_TEXT/UTF8

  274. Codec ID/Info : UTF-8 Plain Text

  275. Duration : 1 h 37 min

  276. Bit rate : 33 b/s

  277. Count of elements : 956

  278. Stream size : 24.2 KiB (0%)

  279. Language : Indonesian

  280. Default : No

  281. Forced : No


  282. Text #19

  283. ID : 21

  284. Format : UTF-8

  285. Codec ID : S_TEXT/UTF8

  286. Codec ID/Info : UTF-8 Plain Text

  287. Duration : 1 h 37 min

  288. Bit rate : 53 b/s

  289. Count of elements : 1309

  290. Stream size : 38.0 KiB (0%)

  291. Title : SDH

  292. Language : Italian

  293. Default : No

  294. Forced : No


  295. Text #20

  296. ID : 22

  297. Format : UTF-8

  298. Codec ID : S_TEXT/UTF8

  299. Codec ID/Info : UTF-8 Plain Text

  300. Duration : 1 h 37 min

  301. Bit rate : 57 b/s

  302. Count of elements : 948

  303. Stream size : 41.0 KiB (0%)

  304. Language : Japanese

  305. Default : No

  306. Forced : No


  307. Text #21

  308. ID : 23

  309. Format : UTF-8

  310. Codec ID : S_TEXT/UTF8

  311. Codec ID/Info : UTF-8 Plain Text

  312. Duration : 1 h 37 min

  313. Bit rate : 37 b/s

  314. Count of elements : 957

  315. Stream size : 26.8 KiB (0%)

  316. Language : Korean

  317. Default : No

  318. Forced : No


  319. Text #22

  320. ID : 24

  321. Format : UTF-8

  322. Codec ID : S_TEXT/UTF8

  323. Codec ID/Info : UTF-8 Plain Text

  324. Duration : 1 h 37 min

  325. Bit rate : 32 b/s

  326. Count of elements : 947

  327. Stream size : 23.0 KiB (0%)

  328. Language : Malay

  329. Default : No

  330. Forced : No


  331. Text #23

  332. ID : 25

  333. Format : UTF-8

  334. Codec ID : S_TEXT/UTF8

  335. Codec ID/Info : UTF-8 Plain Text

  336. Duration : 1 h 37 min

  337. Bit rate : 32 b/s

  338. Count of elements : 866

  339. Stream size : 23.0 KiB (0%)

  340. Language : Norwegian Bokmal

  341. Default : No

  342. Forced : No


  343. Text #24

  344. ID : 26

  345. Format : UTF-8

  346. Codec ID : S_TEXT/UTF8

  347. Codec ID/Info : UTF-8 Plain Text

  348. Duration : 1 h 37 min

  349. Bit rate : 34 b/s

  350. Count of elements : 894

  351. Stream size : 24.4 KiB (0%)

  352. Language : Dutch

  353. Default : No

  354. Forced : No


  355. Text #25

  356. ID : 27

  357. Format : UTF-8

  358. Codec ID : S_TEXT/UTF8

  359. Codec ID/Info : UTF-8 Plain Text

  360. Duration : 1 h 37 min

  361. Bit rate : 30 b/s

  362. Count of elements : 934

  363. Stream size : 22.1 KiB (0%)

  364. Language : Polish

  365. Default : No

  366. Forced : No


  367. Text #26

  368. ID : 28

  369. Format : UTF-8

  370. Codec ID : S_TEXT/UTF8

  371. Codec ID/Info : UTF-8 Plain Text

  372. Duration : 1 h 33 min

  373. Bit rate : 41 b/s

  374. Count of elements : 934

  375. Stream size : 28.2 KiB (0%)

  376. Title : Brasil

  377. Language : Portuguese

  378. Default : No

  379. Forced : No


  380. Text #27

  381. ID : 29

  382. Format : UTF-8

  383. Codec ID : S_TEXT/UTF8

  384. Codec ID/Info : UTF-8 Plain Text

  385. Duration : 1 h 33 min

  386. Bit rate : 52 b/s

  387. Count of elements : 1243

  388. Stream size : 36.1 KiB (0%)

  389. Title : Brasil SDH

  390. Language : Portuguese

  391. Default : No

  392. Forced : No


  393. Text #28

  394. ID : 30

  395. Format : UTF-8

  396. Codec ID : S_TEXT/UTF8

  397. Codec ID/Info : UTF-8 Plain Text

  398. Duration : 1 h 37 min

  399. Bit rate : 34 b/s

  400. Count of elements : 948

  401. Stream size : 24.5 KiB (0%)

  402. Title : Portugal

  403. Language : Portuguese

  404. Default : No

  405. Forced : No


  406. Text #29

  407. ID : 31

  408. Format : UTF-8

  409. Codec ID : S_TEXT/UTF8

  410. Codec ID/Info : UTF-8 Plain Text

  411. Duration : 1 h 33 min

  412. Bit rate : 33 b/s

  413. Count of elements : 821

  414. Stream size : 23.0 KiB (0%)

  415. Language : Romanian

  416. Default : No

  417. Forced : No


  418. Text #30

  419. ID : 32

  420. Format : UTF-8

  421. Codec ID : S_TEXT/UTF8

  422. Codec ID/Info : UTF-8 Plain Text

  423. Duration : 1 h 37 min

  424. Bit rate : 53 b/s

  425. Count of elements : 953

  426. Stream size : 38.4 KiB (0%)

  427. Language : Russian

  428. Default : No

  429. Forced : No


  430. Text #31

  431. ID : 33

  432. Format : UTF-8

  433. Codec ID : S_TEXT/UTF8

  434. Codec ID/Info : UTF-8 Plain Text

  435. Duration : 1 h 37 min

  436. Bit rate : 33 b/s

  437. Count of elements : 934

  438. Stream size : 24.4 KiB (0%)

  439. Language : Swedish

  440. Default : No

  441. Forced : No


  442. Text #32

  443. ID : 34

  444. Format : UTF-8

  445. Codec ID : S_TEXT/UTF8

  446. Codec ID/Info : UTF-8 Plain Text

  447. Duration : 1 h 37 min

  448. Bit rate : 88 b/s

  449. Count of elements : 957

  450. Stream size : 63.2 KiB (0%)

  451. Language : Thai

  452. Default : No

  453. Forced : No


  454. Text #33

  455. ID : 35

  456. Format : UTF-8

  457. Codec ID : S_TEXT/UTF8

  458. Codec ID/Info : UTF-8 Plain Text

  459. Duration : 1 h 37 min

  460. Bit rate : 34 b/s

  461. Count of elements : 928

  462. Stream size : 24.7 KiB (0%)

  463. Language : Turkish

  464. Default : No

  465. Forced : No


  466. Text #34

  467. ID : 36

  468. Format : UTF-8

  469. Codec ID : S_TEXT/UTF8

  470. Codec ID/Info : UTF-8 Plain Text

  471. Duration : 1 h 37 min

  472. Bit rate : 53 b/s

  473. Count of elements : 955

  474. Stream size : 38.1 KiB (0%)

  475. Language : Ukrainian

  476. Default : No

  477. Forced : No


  478. Text #35

  479. ID : 37

  480. Format : UTF-8

  481. Codec ID : S_TEXT/UTF8

  482. Codec ID/Info : UTF-8 Plain Text

  483. Duration : 1 h 37 min

  484. Bit rate : 42 b/s

  485. Count of elements : 925

  486. Stream size : 30.7 KiB (0%)

  487. Language : Vietnamese

  488. Default : No

  489. Forced : No


  490. Text #36

  491. ID : 38

  492. Format : UTF-8

  493. Codec ID : S_TEXT/UTF8

  494. Codec ID/Info : UTF-8 Plain Text

  495. Duration : 1 h 37 min

  496. Bit rate : 32 b/s

  497. Count of elements : 1041

  498. Stream size : 23.5 KiB (0%)

  499. Title : 中文[简体]

  500. Language : Chinese

  501. Default : No

  502. Forced : No


  503. Text #37

  504. ID : 39

  505. Format : UTF-8

  506. Codec ID : S_TEXT/UTF8

  507. Codec ID/Info : UTF-8 Plain Text

  508. Duration : 1 h 37 min

  509. Bit rate : 32 b/s

  510. Count of elements : 957

  511. Stream size : 23.2 KiB (0%)

  512. Title : 中文[繁體]

  513. Language : Chinese

  514. Default : No

  515. Forced : No


复制代码



文件下载


除非特别注明,本文『洗劫墨索里尼[简繁英字幕].Robbing.Mussolini.2022.1080p.NF.WEB-DL.x264.DDP5.1-MOMOWEB 1.96GB』来源于互联网机器人自动抓取,非本站原创。 浮游电影网不对本文拥有版权,如有侵犯,请联系邮箱:fuyouu#yandex.com[#换成@]投诉。我们会在15个工作日内删除。 但烦请转载时请标明出处:“本文转载于『浮游电影网』,原文地址:https://www.fuyouu.com/22872.html

评论吧骚年!

发表你的见解   

昵称*

E-mail*(建议输入,以便收到博主回复的提示邮件)

验证码*

您可以使用eMule或eMule Mod(Windows)、aMule(Win、Linux、Mac)等软件下载eD2k链接。。
eMule收藏集(.emulecollection)文件是您选中的所有链接的列表文件。eMule可以直接下载它们。
按住SHIFT键选择可以选中多个选择框。
可用文件名和大小选择器来选择文件。
文件名选择器帮您根据文件名称或后缀来选择文件。不分大小写。
符号使用:
和:空格( )、+
不包含:-
或:|
转义:一对英文引号("");
匹配开头:^
匹配结尾:$
例如:
选中所有名称中包含有“eMule”或“0.49c”字眼,但不包含有“exe”字眼的:emule|0.49c -exe
选中所有名称的开头是“eMule”,结尾是“0.49c”的:^emule 0.49c$
选中所有名称中带有“eMule 0.49c”的(必须是“eMule 0.49c”,中间没有别的字符,不能是“eMule fake 0.49c”),需要转义:"emule 0.49c"
大小选择器帮您根据文件大小选择文件。