当前位置: 首页 >> 欧美电影 >> 圣诞日记[简繁英字幕].The.Noel.Diary.2022.1080p.NF.WEB-DL.x264.DDP5.1.Atmos-MOMOWEB 3.85GB >> 正文

圣诞日记[简繁英字幕].The.Noel.Diary.2022.1080p.NF.WEB-DL.x264.DDP5.1.Atmos-MOMOWEB 3.85GB

2022年11月26日 16:26:16     电影发布:来源于网络     电影分类:欧美电影     评论(0)    

◎标 题 圣诞日记

◎片 名 The Noel Diary

◎年 代 2022

◎产 地 美国

◎类 别 剧情 / 喜剧 / 爱情

◎语 言 英语

◎上映日期 2022-11-24(美国网络)

◎IMDb评分 6.6/10 (510人评价)

◎IMDb链接 https://www.imdb.com/title/tt13007592/

◎豆瓣链接 https://movie.douban.com/subject/35193155/

◎片 长 100分钟

◎导 演 查尔斯·谢尔 Charles Shyer

◎编 剧 大卫·戈尔登 David Golden

查尔斯·谢尔 Charles Shyer

◎演 员 贾斯汀·哈特雷 Justin Hartley

巴莱特·道斯 Barrett Doss

艾森斯·阿特金斯 Essence Atkins

邦妮·比蒂丽娅 Bonnie Bedelia

詹姆斯·瑞马尔 James Remar

安德里娅·舒 Andrea Sooch

Vivian Full Vivian Full

杰夫·科贝特 Jeff Corbett

亚伦·科斯塔·加尼斯 Aaron Costa Ganis

Alexander Blaise Alexander Blaise

Patrick K. Dooley Patrick K. Dooley

史蒂夫·安托努奇 Steve Antonucci

Christopher Watts

特里特·威廉斯 Treat Williams

◎简 介

小说作家在圣诞节返乡整理儿时故居,遇见了一位正在寻找生母的女人。一本旧日记能解开她们的过往秘密,打开彼此心房吗?

  1. ##### MediaInfo ######

  2. General

  3. Unique ID : 253783948897284542566917670678761065745 (0xBEED02BA85D619A921AD6DA2BE304D11)

  4. Complete name : The.Noel.Diary.2022.1080p.NF.WEB-DL.x264.DDP5.1.Atmos-MOMOWEB.mkv

  5. Format : Matroska

  6. Format version : Version 4

  7. File size : 3.84 GiB

  8. Duration : 1 h 40 min

  9. Overall bit rate mode : Variable

  10. Overall bit rate : 5 461 kb/s

  11. Movie name : The.Noel.Diary.2022.1080p.NF.WEB-DL.x264.DDP5.1.Atmos-PTerWEB

  12. Encoded date : UTC 2022-11-25 06:29:32

  13. Writing application : mkvmerge v72.0.0 ('Minuano (Six-eight)') 64-bit

  14. Writing library : libebml v1.4.4 + libmatroska v1.7.1


  15. Video

  16. ID : 1

  17. Format : AVC

  18. Format/Info : Advanced Video Codec

  19. Format profile : [email protected]

  20. Format settings : CABAC / 4 Ref Frames

  21. Format settings, CABAC : Yes

  22. Format settings, Reference frames : 4 frames

  23. Codec ID : V_MPEG4/ISO/AVC

  24. Duration : 1 h 40 min

  25. Bit rate mode : Variable

  26. Bit rate : 4 687 kb/s

  27. Maximum bit rate : 20.0 Mb/s

  28. Width : 1 920 pixels

  29. Height : 1 080 pixels

  30. Display aspect ratio : 16:9

  31. Frame rate mode : Constant

  32. Frame rate : 24.000 FPS

  33. Color space : YUV

  34. Chroma subsampling : 4:2:0

  35. Bit depth : 8 bits

  36. Scan type : Progressive

  37. Bits/(Pixel*Frame) : 0.094

  38. Stream size : 3.30 GiB (86%)

  39. Writing library : x264 core 148 r2727 7d026e8

  40. Encoding settings : cabac=1 / ref=4 / deblock=1:0:0 / analyse=0x3:0x111 / me=umh / subme=10 / psy=1 / psy_rd=1.00:0.00 / mixed_ref=1 / me_range=120 / chroma_me=1 / trellis=2 / 8x8dct=1 / cqm=0 / deadzone=21,11 / fast_pskip=1 / chroma_qp_offset=-2 / threads=8 / lookahead_threads=2 / sliced_threads=0 / nr=0 / decimate=1 / interlaced=0 / NTMzNTQ= / bluray_compat=0 / stitchable=1 / constrained_intra=0 / bframes=16 / b_pyramid=2 / b_adapt=2 / b_bias=0 / direct=3 / weightb=1 / open_gop=0 / weightp=2 / keyint=240 / keyint_min=121 / scenecut=0 / intra_refresh=0 / rc_lookahead=240 / rc=crf / mbtree=1 / crf=16.0 / qcomp=0.50 / qpmin=6 / qpmax=51 / qpstep=4 / vbv_maxrate=20000 / vbv_bufsize=25000 / crf_max=0.0 / nal_hrd=vbr / filler=0 / NTMzNTQ=LmsMAP37EqsCpk / ip_ratio=1.40 / aq=1:0.80

  41. Default : Yes

  42. Forced : No


  43. Audio

  44. ID : 2

  45. Format : E-AC-3 JOC

  46. Format/Info : Enhanced AC-3 with Joint Object Coding

  47. Commercial name : Dolby Digital Plus with Dolby Atmos

  48. Codec ID : A_EAC3

  49. Duration : 1 h 40 min

  50. Bit rate mode : Constant

  51. Bit rate : 768 kb/s

  52. Channel(s) : 6 channels

  53. Channel layout : L R C LFE Ls Rs

  54. Sampling rate : 48.0 kHz

  55. Frame rate : 31.250 FPS (1536 SPF)

  56. Compression mode : Lossy

  57. Stream size : 554 MiB (14%)

  58. Language : English

  59. Service kind : Complete Main

  60. Default : Yes

  61. Forced : No

  62. Complexity index : 16

  63. Number of dynamic objects : 15

  64. Bed channel count : 1 channel

  65. Bed channel configuration : LFE


  66. Text #1

  67. ID : 3

  68. Format : UTF-8

  69. Codec ID : S_TEXT/UTF8

  70. Codec ID/Info : UTF-8 Plain Text

  71. Duration : 1 h 32 min

  72. Bit rate : 99 b/s

  73. Count of elements : 1140

  74. Stream size : 67.4 KiB (0%)

  75. Language : Arabic

  76. Default : No

  77. Forced : No


  78. Text #2

  79. ID : 4

  80. Format : UTF-8

  81. Codec ID : S_TEXT/UTF8

  82. Codec ID/Info : UTF-8 Plain Text

  83. Duration : 1 h 34 min

  84. Bit rate : 53 b/s

  85. Count of elements : 1134

  86. Stream size : 36.7 KiB (0%)

  87. Language : Catalan

  88. Default : No

  89. Forced : No


  90. Text #3

  91. ID : 5

  92. Format : UTF-8

  93. Codec ID : S_TEXT/UTF8

  94. Codec ID/Info : UTF-8 Plain Text

  95. Duration : 1 h 38 min

  96. Bit rate : 53 b/s

  97. Count of elements : 1145

  98. Stream size : 38.6 KiB (0%)

  99. Language : Czech

  100. Default : No

  101. Forced : No


  102. Text #4

  103. ID : 6

  104. Format : UTF-8

  105. Codec ID : S_TEXT/UTF8

  106. Codec ID/Info : UTF-8 Plain Text

  107. Duration : 1 h 38 min

  108. Bit rate : 50 b/s

  109. Count of elements : 1086

  110. Stream size : 36.4 KiB (0%)

  111. Language : Danish

  112. Default : No

  113. Forced : No


  114. Text #5

  115. ID : 7

  116. Format : UTF-8

  117. Codec ID : S_TEXT/UTF8

  118. Codec ID/Info : UTF-8 Plain Text

  119. Duration : 1 h 38 min

  120. Bit rate : 56 b/s

  121. Count of elements : 1123

  122. Stream size : 40.5 KiB (0%)

  123. Language : German

  124. Default : No

  125. Forced : No


  126. Text #6

  127. ID : 8

  128. Format : UTF-8

  129. Codec ID : S_TEXT/UTF8

  130. Codec ID/Info : UTF-8 Plain Text

  131. Duration : 1 h 38 min

  132. Bit rate : 89 b/s

  133. Count of elements : 1087

  134. Stream size : 64.7 KiB (0%)

  135. Language : Greek

  136. Default : No

  137. Forced : No


  138. Text #7

  139. ID : 9

  140. Format : UTF-8

  141. Codec ID : S_TEXT/UTF8

  142. Codec ID/Info : UTF-8 Plain Text

  143. Duration : 1 h 37 min

  144. Bit rate : 74 b/s

  145. Count of elements : 1476

  146. Stream size : 53.0 KiB (0%)

  147. Title : SDH

  148. Language : English

  149. Default : No

  150. Forced : No


  151. Text #8

  152. ID : 10

  153. Format : UTF-8

  154. Codec ID : S_TEXT/UTF8

  155. Codec ID/Info : UTF-8 Plain Text

  156. Duration : 1 h 38 min

  157. Bit rate : 50 b/s

  158. Count of elements : 1132

  159. Stream size : 36.3 KiB (0%)

  160. Title : Espa?a

  161. Language : Spanish

  162. Default : No

  163. Forced : No


  164. Text #9

  165. ID : 11

  166. Format : UTF-8

  167. Codec ID : S_TEXT/UTF8

  168. Codec ID/Info : UTF-8 Plain Text

  169. Duration : 1 h 38 min

  170. Bit rate : 51 b/s

  171. Count of elements : 1137

  172. Stream size : 37.3 KiB (0%)

  173. Title : Latinoamérica

  174. Language : Spanish

  175. Default : No

  176. Forced : No


  177. Text #10

  178. ID : 12

  179. Format : UTF-8

  180. Codec ID : S_TEXT/UTF8

  181. Codec ID/Info : UTF-8 Plain Text

  182. Duration : 1 h 38 min

  183. Bit rate : 49 b/s

  184. Count of elements : 1132

  185. Stream size : 35.9 KiB (0%)

  186. Language : Basque

  187. Default : No

  188. Forced : No


  189. Text #11

  190. ID : 13

  191. Format : UTF-8

  192. Codec ID : S_TEXT/UTF8

  193. Codec ID/Info : UTF-8 Plain Text

  194. Duration : 1 h 38 min

  195. Bit rate : 52 b/s

  196. Count of elements : 1049

  197. Stream size : 37.7 KiB (0%)

  198. Language : Finnish

  199. Default : No

  200. Forced : No


  201. Text #12

  202. ID : 14

  203. Format : UTF-8

  204. Codec ID : S_TEXT/UTF8

  205. Codec ID/Info : UTF-8 Plain Text

  206. Duration : 1 h 38 min

  207. Bit rate : 52 b/s

  208. Count of elements : 1158

  209. Stream size : 38.3 KiB (0%)

  210. Language : fil

  211. Default : No

  212. Forced : No


  213. Text #13

  214. ID : 15

  215. Format : UTF-8

  216. Codec ID : S_TEXT/UTF8

  217. Codec ID/Info : UTF-8 Plain Text

  218. Duration : 1 h 32 min

  219. Bit rate : 70 b/s

  220. Count of elements : 1270

  221. Stream size : 47.6 KiB (0%)

  222. Language : French

  223. Default : No

  224. Forced : No


  225. Text #14

  226. ID : 16

  227. Format : UTF-8

  228. Codec ID : S_TEXT/UTF8

  229. Codec ID/Info : UTF-8 Plain Text

  230. Duration : 1 h 38 min

  231. Bit rate : 75 b/s

  232. Count of elements : 1521

  233. Stream size : 54.8 KiB (0%)

  234. Title : SDH

  235. Language : French

  236. Default : No

  237. Forced : No


  238. Text #15

  239. ID : 17

  240. Format : UTF-8

  241. Codec ID : S_TEXT/UTF8

  242. Codec ID/Info : UTF-8 Plain Text

  243. Duration : 1 h 38 min

  244. Bit rate : 49 b/s

  245. Count of elements : 1134

  246. Stream size : 35.3 KiB (0%)

  247. Language : Galician

  248. Default : No

  249. Forced : No


  250. Text #16

  251. ID : 18

  252. Format : UTF-8

  253. Codec ID : S_TEXT/UTF8

  254. Codec ID/Info : UTF-8 Plain Text

  255. Duration : 1 h 38 min

  256. Bit rate : 88 b/s

  257. Count of elements : 1197

  258. Stream size : 64.0 KiB (0%)

  259. Language : Hebrew

  260. Default : No

  261. Forced : No


  262. Text #17

  263. ID : 19

  264. Format : UTF-8

  265. Codec ID : S_TEXT/UTF8

  266. Codec ID/Info : UTF-8 Plain Text

  267. Duration : 1 h 38 min

  268. Bit rate : 49 b/s

  269. Count of elements : 1135

  270. Stream size : 35.6 KiB (0%)

  271. Language : Croatian

  272. Default : No

  273. Forced : No


  274. Text #18

  275. ID : 20

  276. Format : UTF-8

  277. Codec ID : S_TEXT/UTF8

  278. Codec ID/Info : UTF-8 Plain Text

  279. Duration : 1 h 32 min

  280. Bit rate : 63 b/s

  281. Count of elements : 1319

  282. Stream size : 43.5 KiB (0%)

  283. Language : Hungarian

  284. Default : No

  285. Forced : No


  286. Text #19

  287. ID : 21

  288. Format : UTF-8

  289. Codec ID : S_TEXT/UTF8

  290. Codec ID/Info : UTF-8 Plain Text

  291. Duration : 1 h 37 min

  292. Bit rate : 72 b/s

  293. Count of elements : 1564

  294. Stream size : 51.9 KiB (0%)

  295. Title : SDH

  296. Language : Hungarian

  297. Default : No

  298. Forced : No


  299. Text #20

  300. ID : 22

  301. Format : UTF-8

  302. Codec ID : S_TEXT/UTF8

  303. Codec ID/Info : UTF-8 Plain Text

  304. Duration : 1 h 38 min

  305. Bit rate : 52 b/s

  306. Count of elements : 1133

  307. Stream size : 37.7 KiB (0%)

  308. Language : Indonesian

  309. Default : No

  310. Forced : No


  311. Text #21

  312. ID : 23

  313. Format : UTF-8

  314. Codec ID : S_TEXT/UTF8

  315. Codec ID/Info : UTF-8 Plain Text

  316. Duration : 1 h 38 min

  317. Bit rate : 50 b/s

  318. Count of elements : 1169

  319. Stream size : 36.7 KiB (0%)

  320. Language : Italian

  321. Default : No

  322. Forced : No


  323. Text #22

  324. ID : 24

  325. Format : UTF-8

  326. Codec ID : S_TEXT/UTF8

  327. Codec ID/Info : UTF-8 Plain Text

  328. Duration : 1 h 32 min

  329. Bit rate : 94 b/s

  330. Count of elements : 1348

  331. Stream size : 64.1 KiB (0%)

  332. Language : Japanese

  333. Default : No

  334. Forced : No


  335. Text #23

  336. ID : 25

  337. Format : UTF-8

  338. Codec ID : S_TEXT/UTF8

  339. Codec ID/Info : UTF-8 Plain Text

  340. Duration : 1 h 38 min

  341. Bit rate : 60 b/s

  342. Count of elements : 1145

  343. Stream size : 43.7 KiB (0%)

  344. Language : Korean

  345. Default : No

  346. Forced : No


  347. Text #24

  348. ID : 26

  349. Format : UTF-8

  350. Codec ID : S_TEXT/UTF8

  351. Codec ID/Info : UTF-8 Plain Text

  352. Duration : 1 h 38 min

  353. Bit rate : 51 b/s

  354. Count of elements : 1144

  355. Stream size : 37.6 KiB (0%)

  356. Language : Malay

  357. Default : No

  358. Forced : No


  359. Text #25

  360. ID : 27

  361. Format : UTF-8

  362. Codec ID : S_TEXT/UTF8

  363. Codec ID/Info : UTF-8 Plain Text

  364. Duration : 1 h 38 min

  365. Bit rate : 51 b/s

  366. Count of elements : 1102

  367. Stream size : 37.1 KiB (0%)

  368. Language : Norwegian Bokmal

  369. Default : No

  370. Forced : No


  371. Text #26

  372. ID : 28

  373. Format : UTF-8

  374. Codec ID : S_TEXT/UTF8

  375. Codec ID/Info : UTF-8 Plain Text

  376. Duration : 1 h 38 min

  377. Bit rate : 48 b/s

  378. Count of elements : 982

  379. Stream size : 35.3 KiB (0%)

  380. Language : Dutch

  381. Default : No

  382. Forced : No


  383. Text #27

  384. ID : 29

  385. Format : UTF-8

  386. Codec ID : S_TEXT/UTF8

  387. Codec ID/Info : UTF-8 Plain Text

  388. Duration : 1 h 38 min

  389. Bit rate : 55 b/s

  390. Count of elements : 1138

  391. Stream size : 39.9 KiB (0%)

  392. Language : Polish

  393. Default : No

  394. Forced : No


  395. Text #28

  396. ID : 30

  397. Format : UTF-8

  398. Codec ID : S_TEXT/UTF8

  399. Codec ID/Info : UTF-8 Plain Text

  400. Duration : 1 h 38 min

  401. Bit rate : 52 b/s

  402. Count of elements : 1147

  403. Stream size : 38.0 KiB (0%)

  404. Title : Brasil

  405. Language : Portuguese

  406. Default : No

  407. Forced : No


  408. Text #29

  409. ID : 31

  410. Format : UTF-8

  411. Codec ID : S_TEXT/UTF8

  412. Codec ID/Info : UTF-8 Plain Text

  413. Duration : 1 h 38 min

  414. Bit rate : 51 b/s

  415. Count of elements : 1114

  416. Stream size : 37.1 KiB (0%)

  417. Title : Portugal

  418. Language : Portuguese

  419. Default : No

  420. Forced : No


  421. Text #30

  422. ID : 32

  423. Format : UTF-8

  424. Codec ID : S_TEXT/UTF8

  425. Codec ID/Info : UTF-8 Plain Text

  426. Duration : 1 h 38 min

  427. Bit rate : 50 b/s

  428. Count of elements : 1094

  429. Stream size : 36.3 KiB (0%)

  430. Language : Romanian

  431. Default : No

  432. Forced : No


  433. Text #31

  434. ID : 33

  435. Format : UTF-8

  436. Codec ID : S_TEXT/UTF8

  437. Codec ID/Info : UTF-8 Plain Text

  438. Duration : 1 h 38 min

  439. Bit rate : 82 b/s

  440. Count of elements : 1164

  441. Stream size : 59.3 KiB (0%)

  442. Language : Russian

  443. Default : No

  444. Forced : No


  445. Text #32

  446. ID : 34

  447. Format : UTF-8

  448. Codec ID : S_TEXT/UTF8

  449. Codec ID/Info : UTF-8 Plain Text

  450. Duration : 1 h 38 min

  451. Bit rate : 51 b/s

  452. Count of elements : 1128

  453. Stream size : 37.6 KiB (0%)

  454. Language : Swedish

  455. Default : No

  456. Forced : No


  457. Text #33

  458. ID : 35

  459. Format : UTF-8

  460. Codec ID : S_TEXT/UTF8

  461. Codec ID/Info : UTF-8 Plain Text

  462. Duration : 1 h 38 min

  463. Bit rate : 137 b/s

  464. Count of elements : 1154

  465. Stream size : 99.4 KiB (0%)

  466. Language : Thai

  467. Default : No

  468. Forced : No


  469. Text #34

  470. ID : 36

  471. Format : UTF-8

  472. Codec ID : S_TEXT/UTF8

  473. Codec ID/Info : UTF-8 Plain Text

  474. Duration : 1 h 38 min

  475. Bit rate : 52 b/s

  476. Count of elements : 1089

  477. Stream size : 37.8 KiB (0%)

  478. Language : Turkish

  479. Default : No

  480. Forced : No


  481. Text #35

  482. ID : 37

  483. Format : UTF-8

  484. Codec ID : S_TEXT/UTF8

  485. Codec ID/Info : UTF-8 Plain Text

  486. Duration : 1 h 38 min

  487. Bit rate : 85 b/s

  488. Count of elements : 1143

  489. Stream size : 61.9 KiB (0%)

  490. Language : Ukrainian

  491. Default : No

  492. Forced : No


  493. Text #36

  494. ID : 38

  495. Format : UTF-8

  496. Codec ID : S_TEXT/UTF8

  497. Codec ID/Info : UTF-8 Plain Text

  498. Duration : 1 h 38 min

  499. Bit rate : 71 b/s

  500. Count of elements : 1130

  501. Stream size : 51.7 KiB (0%)

  502. Language : Vietnamese

  503. Default : No

  504. Forced : No


  505. Text #37

  506. ID : 39

  507. Format : UTF-8

  508. Codec ID : S_TEXT/UTF8

  509. Codec ID/Info : UTF-8 Plain Text

  510. Duration : 1 h 38 min

  511. Bit rate : 48 b/s

  512. Count of elements : 1142

  513. Stream size : 35.0 KiB (0%)

  514. Title : 中文[简体]

  515. Language : Chinese

  516. Default : No

  517. Forced : No


  518. Text #38

  519. ID : 40

  520. Format : UTF-8

  521. Codec ID : S_TEXT/UTF8

  522. Codec ID/Info : UTF-8 Plain Text

  523. Duration : 1 h 38 min

  524. Bit rate : 49 b/s

  525. Count of elements : 1200

  526. Stream size : 35.6 KiB (0%)

  527. Title : 中文[繁體]

  528. Language : Chinese

  529. Default : No

  530. Forced : No


复制代码



文件下载


除非特别注明,本文『圣诞日记[简繁英字幕].The.Noel.Diary.2022.1080p.NF.WEB-DL.x264.DDP5.1.Atmos-MOMOWEB 3.85GB』来源于互联网机器人自动抓取,非本站原创。 浮游电影网不对本文拥有版权,如有侵犯,请联系邮箱:fuyouu#yandex.com[#换成@]投诉。我们会在15个工作日内删除。 但烦请转载时请标明出处:“本文转载于『浮游电影网』,原文地址:https://www.fuyouu.com/22871.html

评论吧骚年!

发表你的见解   

昵称*

E-mail*(建议输入,以便收到博主回复的提示邮件)

验证码*

您可以使用eMule或eMule Mod(Windows)、aMule(Win、Linux、Mac)等软件下载eD2k链接。。
eMule收藏集(.emulecollection)文件是您选中的所有链接的列表文件。eMule可以直接下载它们。
按住SHIFT键选择可以选中多个选择框。
可用文件名和大小选择器来选择文件。
文件名选择器帮您根据文件名称或后缀来选择文件。不分大小写。
符号使用:
和:空格( )、+
不包含:-
或:|
转义:一对英文引号("");
匹配开头:^
匹配结尾:$
例如:
选中所有名称中包含有“eMule”或“0.49c”字眼,但不包含有“exe”字眼的:emule|0.49c -exe
选中所有名称的开头是“eMule”,结尾是“0.49c”的:^emule 0.49c$
选中所有名称中带有“eMule 0.49c”的(必须是“eMule 0.49c”,中间没有别的字符,不能是“eMule fake 0.49c”),需要转义:"emule 0.49c"
大小选择器帮您根据文件大小选择文件。