当前位置: 首页 >> 国产电影 >> 哥,你好[中文字幕/国语音轨].Give.Me.Five.2022.2160p.WEB-DL.H265.DDP-TAGWEB 3.33GB >> 正文

哥,你好[中文字幕/国语音轨].Give.Me.Five.2022.2160p.WEB-DL.H265.DDP-TAGWEB 3.33GB

2022年11月26日 16:22:28     电影发布:来源于网络     电影分类:国产电影     评论(0)    

◎标 题 哥,你好

◎译 名 小伍·哥 / 小伍哥 / 你好,妈 / Give Me Five / Xiao Wu Ge

◎年 代 2022

◎产 地 中国大陆

◎类 别 剧情 / 喜剧 / 奇幻

◎语 言 汉语普通话

◎上映日期 2022-09-09(中国大陆)

◎IMDb评分 5.8/10 (53人评价)

◎IMDb链接 https://www.imdb.com/title/tt17052380/

◎豆瓣评分 5.1/10 (50644人评价)

◎豆瓣链接 https://movie.douban.com/subject/35102469/

◎片 长 111分钟

◎导 演 张栾 Luan Zhang

◎编 剧 董天翼 Tianyi Dong

◎演 员 马丽 Li Ma

常远 Yuan Chang

魏翔 Xiang Wei

贾冰 Bing Jia

黄允桐 Yuntong Huang

韩彦博 Yanbo Han

张一鸣 Yiming Zhang

郝鹏飞 Pengfei Hao

李一宁 Yining Li

李志荟 Zhihui Li

刘语乔 Yuqiao Liu

张佳雯 Jiawen Zhang

吕宁 Ning Lü

王伟 Wei Wang

华熔

王伟 Wei Wang

林家亿 Jackie C.Lin

曾茂军 Maojun Zeng

赵仁鹏 Renpeng Zhao

王宇 Yu Wang

刘志超

吴迪

◎简 介

与父亲老伍(魏翔 饰)终年不合的小伍(常远 饰)阴差阳错回到80年代,意外搅黄了父亲与母亲大陆(马丽 饰)的初次相遇。为了纠正这个错误,他想尽办法一次次重返过去,鼓励老妈追老爸,让人啼笑皆非的闹剧不断上演。父母相遇相恋的命运,是否会因为小伍的干预而转变?尘封在父亲心里的秘密,又将如何慢慢揭开……

  1. ##### MediaInfo ######

  2. General

  3. Unique ID : 268844977009340184581195959335892910896 (0xCA41A8BED7E6A7F86C8B0E6173458330)

  4. Complete name : Give.Me.Five.2022.2160p.WEB-DL.H265.DDP-TAGWEB.mkv

  5. Format : Matroska

  6. Format version : Version 4

  7. File size : 3.33 GiB

  8. Duration : 1 h 50 min

  9. Overall bit rate : 4 320 kb/s

  10. Encoded date : UTC 2022-11-25 10:00:39

  11. Writing application : mkvmerge v62.0.0 ('Apollo') 64-bit

  12. Writing library : libebml v1.4.2 + libmatroska v1.6.4


  13. Video

  14. ID : 1

  15. Format : HEVC

  16. Format/Info : High Efficiency Video Coding

  17. Format profile : [email protected]@Main

  18. Codec ID : V_MPEGH/ISO/HEVC

  19. Duration : 1 h 50 min

  20. Bit rate : 3 872 kb/s

  21. Width : 3 840 pixels

  22. Height : 1 606 pixels

  23. Display aspect ratio : 2.40:1

  24. Frame rate mode : Constant

  25. Frame rate : 24.000 FPS

  26. Color space : YUV

  27. Chroma subsampling : 4:2:0

  28. Bit depth : 8 bits

  29. Bits/(Pixel*Frame) : 0.026

  30. Stream size : 2.99 GiB (90%)

  31. Default : Yes

  32. Forced : No

  33. Color range : Limited

  34. Color primaries : BT.709

  35. Transfer characteristics : BT.709

  36. Matrix coefficients : BT.709


  37. Audio #1

  38. ID : 2

  39. Format : E-AC-3

  40. Format/Info : Enhanced AC-3

  41. Commercial name : Dolby Digital Plus

  42. Codec ID : A_EAC3

  43. Duration : 1 h 50 min

  44. Bit rate mode : Constant

  45. Bit rate : 256 kb/s

  46. Channel(s) : 2 channels

  47. Channel layout : L R

  48. Sampling rate : 48.0 kHz

  49. Frame rate : 31.250 FPS (1536 SPF)

  50. Compression mode : Lossy

  51. Stream size : 202 MiB (6%)

  52. Language : Chinese

  53. Service kind : Complete Main

  54. Default : Yes

  55. Forced : No


  56. Audio #2

  57. ID : 3

  58. Format : AAC LC

  59. Format/Info : Advanced Audio Codec Low Complexity

  60. Codec ID : A_AAC-2

  61. Duration : 1 h 50 min

  62. Bit rate : 192 kb/s

  63. Channel(s) : 2 channels

  64. Channel layout : L R

  65. Sampling rate : 44.1 kHz

  66. Frame rate : 43.066 FPS (1024 SPF)

  67. Compression mode : Lossy

  68. Stream size : 150 MiB (4%)

  69. Language : Chinese

  70. Default : No

  71. Forced : No


复制代码




文件下载


除非特别注明,本文『哥,你好[中文字幕/国语音轨].Give.Me.Five.2022.2160p.WEB-DL.H265.DDP-TAGWEB 3.33GB』来源于互联网机器人自动抓取,非本站原创。 浮游电影网不对本文拥有版权,如有侵犯,请联系邮箱:fuyouu#yandex.com[#换成@]投诉。我们会在15个工作日内删除。 但烦请转载时请标明出处:“本文转载于『浮游电影网』,原文地址:https://www.fuyouu.com/22870.html

评论吧骚年!

发表你的见解   

昵称*

E-mail*(建议输入,以便收到博主回复的提示邮件)

验证码*

您可以使用eMule或eMule Mod(Windows)、aMule(Win、Linux、Mac)等软件下载eD2k链接。。
eMule收藏集(.emulecollection)文件是您选中的所有链接的列表文件。eMule可以直接下载它们。
按住SHIFT键选择可以选中多个选择框。
可用文件名和大小选择器来选择文件。
文件名选择器帮您根据文件名称或后缀来选择文件。不分大小写。
符号使用:
和:空格( )、+
不包含:-
或:|
转义:一对英文引号("");
匹配开头:^
匹配结尾:$
例如:
选中所有名称中包含有“eMule”或“0.49c”字眼,但不包含有“exe”字眼的:emule|0.49c -exe
选中所有名称的开头是“eMule”,结尾是“0.49c”的:^emule 0.49c$
选中所有名称中带有“eMule 0.49c”的(必须是“eMule 0.49c”,中间没有别的字符,不能是“eMule fake 0.49c”),需要转义:"emule 0.49c"
大小选择器帮您根据文件大小选择文件。