当前位置: 首页 >> 港台电影 >> 哆啦A梦:大雄的宇宙小战争2021[国日多音轨/中文字幕].Doraemon.Nobita's.Little.Star.Wars.2021.2022.4K.WEB-DL.H.265.DDP.5.1 >> 正文

哆啦A梦:大雄的宇宙小战争2021[国日多音轨/中文字幕].Doraemon.Nobita's.Little.Star.Wars.2021.2022.4K.WEB-DL.H.265.DDP.5.1

2022年11月24日 09:29:55     电影发布:来源于网络     电影分类:港台电影     评论(0)    

哆啦A梦:大雄的宇宙小战争2021[国日多音轨/中文字幕].Doraemon.Nobita's.Little.Star.Wars.2021.2022.4K.WEB-DL.H.265.DDP.5.1.&.AAC.4Audios-CTRLTV 2.84GB

◎标 题 哆啦A梦:大雄的宇宙小战争2021

◎译 名 Doraemon the Movie: Nobita's Little Star Wars 2021

◎片 名 ドラえもん のび太の宇宙小戦争リトル・スター・ウォーズ2021

◎年 代 2022

◎产 地 日本

◎类 别 剧情 / 科幻 / 动画 / 冒险

◎语 言 日语

◎上映日期 2022-05-28(中国大陆) / 2022-03-04(日本)

◎IMDb评分 6.6/10 (357人评价)

◎IMDb链接 https://www.imdb.com/title/tt13740078/

◎豆瓣评分 6.1/10 (14361人评价)

◎豆瓣链接 https://movie.douban.com/subject/35253900/

◎片 长 108分钟

◎导 演 山口晋 Shin Yamaguchi

◎编 剧 佐藤大 Dai Sato

藤子·F·不二雄 F. Fujio Fujiko

◎演 员 水田山葵 Wasabi Mizuta

大原惠美 Megumi Oohara

嘉数由美 Yumi Kakazu

木村昴 Subaru Kimura

关智一 Tomokazu Seki

香川照之 Teruyuki Kagawa

松冈茉优 Mayu Matsuoka

三石琴乃 Kotono Mitsuishi

◎简 介

电影改编自1985年剧场版《哆啦A梦:大雄的宇宙小战争》,讲述大雄意外结识来自匹里卡星、体形小巧的外星人帕比,并在哆啦A梦的帮助下,与大家一起穿越星际,共同守护友情和星球的宇宙冒险故事。

  1. ##### MediaInfo ######

  2. General

  3. Unique ID : 192345294079086980299223871732866077893 (0x90B45B2CD5EF6A5FA90299939507D4C5)

  4. Complete name : Doraemon.Nobita's.Little.Star.Wars.2021.2022.4K.WEB-DL.H.265.DDP.5.1.&.AAC.4Audios-CTRLTV.mkv

  5. Format : Matroska

  6. Format version : Version 4

  7. File size : 2.83 GiB

  8. Duration : 1 h 48 min

  9. Overall bit rate : 3 740 kb/s

  10. Encoded date : UTC 2022-11-22 05:05:14

  11. Writing application : mkvmerge v68.0.0 ('The Curtain') 64-bit

  12. Writing library : libebml v1.4.2 + libmatroska v1.6.4


  13. Video

  14. ID : 1

  15. Format : HEVC

  16. Format/Info : High Efficiency Video Coding

  17. Format profile : Main [email protected]@Main

  18. Codec ID : V_MPEGH/ISO/HEVC

  19. Duration : 1 h 48 min

  20. Bit rate : 2 845 kb/s

  21. Width : 3 840 pixels

  22. Height : 2 160 pixels

  23. Display aspect ratio : 16:9

  24. Frame rate mode : Constant

  25. Frame rate : 24.000 FPS

  26. Color space : YUV

  27. Chroma subsampling : 4:2:0

  28. Bit depth : 10 bits

  29. Bits/(Pixel*Frame) : 0.014

  30. Stream size : 2.16 GiB (76%)

  31. Default : Yes

  32. Forced : No

  33. Color range : Limited

  34. Color primaries : BT.709

  35. Transfer characteristics : BT.709

  36. Matrix coefficients : BT.709


  37. Audio #1

  38. ID : 2

  39. Format : E-AC-3

  40. Format/Info : Enhanced AC-3

  41. Commercial name : Dolby Digital Plus

  42. Codec ID : A_EAC3

  43. Duration : 1 h 48 min

  44. Bit rate mode : Constant

  45. Bit rate : 256 kb/s

  46. Channel(s) : 6 channels

  47. Channel layout : L R C LFE Ls Rs

  48. Sampling rate : 48.0 kHz

  49. Frame rate : 31.250 FPS (1536 SPF)

  50. Compression mode : Lossy

  51. Stream size : 199 MiB (7%)

  52. Title : 普通话DDP 5.1

  53. Language : Chinese

  54. Service kind : Complete Main

  55. Default : Yes

  56. Forced : No


  57. Audio #2

  58. ID : 3

  59. Format : AAC LC

  60. Format/Info : Advanced Audio Codec Low Complexity

  61. Codec ID : A_AAC-2

  62. Duration : 1 h 48 min

  63. Bit rate : 192 kb/s

  64. Channel(s) : 2 channels

  65. Channel layout : L R

  66. Sampling rate : 44.1 kHz

  67. Frame rate : 43.066 FPS (1024 SPF)

  68. Compression mode : Lossy

  69. Stream size : 147 MiB (5%)

  70. Title : 普通话AAC 2.0

  71. Language : Chinese

  72. Default : No

  73. Forced : No


  74. Audio #3

  75. ID : 4

  76. Format : E-AC-3

  77. Format/Info : Enhanced AC-3

  78. Commercial name : Dolby Digital Plus

  79. Codec ID : A_EAC3

  80. Duration : 1 h 48 min

  81. Bit rate mode : Constant

  82. Bit rate : 256 kb/s

  83. Channel(s) : 6 channels

  84. Channel layout : L R C LFE Ls Rs

  85. Sampling rate : 48.0 kHz

  86. Frame rate : 31.250 FPS (1536 SPF)

  87. Compression mode : Lossy

  88. Stream size : 199 MiB (7%)

  89. Title : 日语DDP 5.1

  90. Language : Japanese

  91. Service kind : Complete Main

  92. Default : No

  93. Forced : No


  94. Audio #4

  95. ID : 5

  96. Format : AAC LC

  97. Format/Info : Advanced Audio Codec Low Complexity

  98. Codec ID : A_AAC-2

  99. Duration : 1 h 48 min

  100. Bit rate : 192 kb/s

  101. Channel(s) : 2 channels

  102. Channel layout : L R

  103. Sampling rate : 44.1 kHz

  104. Frame rate : 43.066 FPS (1024 SPF)

  105. Compression mode : Lossy

  106. Stream size : 147 MiB (5%)

  107. Title : 日语AAC 2.0

  108. Language : Japanese

  109. Default : No

  110. Forced : No


复制代码





文件下载


除非特别注明,本文『哆啦A梦:大雄的宇宙小战争2021[国日多音轨/中文字幕].Doraemon.Nobita's.Little.Star.Wars.2021.2022.4K.WEB-DL.H.265.DDP.5.1』来源于互联网机器人自动抓取,非本站原创。 浮游电影网不对本文拥有版权,如有侵犯,请联系邮箱:fuyouu#yandex.com[#换成@]投诉。我们会在15个工作日内删除。 但烦请转载时请标明出处:“本文转载于『浮游电影网』,原文地址:https://www.fuyouu.com/22868.html

评论吧骚年!

发表你的见解   

昵称*

E-mail*(建议输入,以便收到博主回复的提示邮件)

验证码*

您可以使用eMule或eMule Mod(Windows)、aMule(Win、Linux、Mac)等软件下载eD2k链接。。
eMule收藏集(.emulecollection)文件是您选中的所有链接的列表文件。eMule可以直接下载它们。
按住SHIFT键选择可以选中多个选择框。
可用文件名和大小选择器来选择文件。
文件名选择器帮您根据文件名称或后缀来选择文件。不分大小写。
符号使用:
和:空格( )、+
不包含:-
或:|
转义:一对英文引号("");
匹配开头:^
匹配结尾:$
例如:
选中所有名称中包含有“eMule”或“0.49c”字眼,但不包含有“exe”字眼的:emule|0.49c -exe
选中所有名称的开头是“eMule”,结尾是“0.49c”的:^emule 0.49c$
选中所有名称中带有“eMule 0.49c”的(必须是“eMule 0.49c”,中间没有别的字符,不能是“eMule fake 0.49c”),需要转义:"emule 0.49c"
大小选择器帮您根据文件大小选择文件。