当前位置: 首页 >> 欧美电影 >> 魔法奇缘2:解除魔法[国英多音轨/简繁英字幕].Disenchanted.2022.1080p.DSNP.WEB-DL.DDPA5.1.H.264-DreamHD 6.56GB >> 正文

魔法奇缘2:解除魔法[国英多音轨/简繁英字幕].Disenchanted.2022.1080p.DSNP.WEB-DL.DDPA5.1.H.264-DreamHD 6.56GB

2022年11月24日 09:27:10     电影发布:来源于网络     电影分类:欧美电影     评论(0)    

◎标 题 魔法奇缘2:解除魔法

◎译 名 曼哈顿奇缘2 / 魔法奇缘2:再见魔法(港) / 解除魔法 / 曼哈顿奇缘2:幸福真谛(台) / Enchanted 2

◎片 名 Disenchanted

◎年 代 2022

◎产 地 美国

◎类 别 喜剧 / 爱情 / 动画 / 歌舞 / 奇幻 / 冒险

◎语 言 英语

◎上映日期 2022-11-18(美国网络)

◎IMDb评分 6.6/10 (84人评价)

◎IMDb链接 https://www.imdb.com/title/tt1596342/

◎豆瓣链接 https://movie.douban.com/subject/4285992/

◎导 演 亚当·尚克曼 Adam Shankman

◎编 剧 亚当·尚克曼 Adam Shankman

萧丽塔 Rita Hsiao

比尔·凯利 Bill Kelly

杰茜·尼尔森 Jessie Nelson

J·大卫·斯提姆 J. David Stem

戴维·N·韦斯 David N. Weiss

◎演 员 艾米·亚当斯 Amy Adams

帕特里克·德姆西 Patrick Dempsey

玛娅·鲁道夫 Maya Rudolph

伊迪娜·门泽尔 Idina Menzel

詹姆斯·麦斯登 James Marsden

加布里埃拉·巴尔达奇诺 Gabriella Baldacchino

奥斯卡·努内斯 Oscar Nuñez

杰玛·梅斯 Jayma Mays

伊薇特·尼科尔·布朗 Yvette Nicole Brown

科尔顿·斯图尔特 Kolton Stewart

詹姆斯·门罗·伊格尔哈特 James Monroe Iglehart

安·哈拉达 Ann Harada

Naoimh Morgan Naoimh Morgan

肖恩·达根 Sean Duggan

布里吉德·莱希 Brigid Leahy

埃马纽埃尔·奥克耶 Emmanuel Okoye

艾伦·曼肯 Alan Menken

Joan Bergin Joan Bergin

◎简 介

吉赛尔公主和罗伯特、摩根搬到了郊区的一栋新房子,被反派玛尔维娜·梦露监视着。随着问题的出现,吉赛尔许愿把他们的生活变成完美的童话,然而咒语产生了戏剧性的反作用,使吉赛尔不得不在午夜来临之前争分夺秒,以拯救她的家人和安大拉西亚王国。

  1. ##### MediaInfo ######

  2. General

  3. Unique ID : 321879257946559326393307963885202442098 (0xF227B0ACBABCF1CB873A1DCF34680772)

  4. Complete name : Disenchanted.2022.1080p.DSNP.WEB-DL.DDPA5.1.H.264-DreamHD.mkv

  5. Format : Matroska

  6. Format version : Version 4

  7. File size : 6.55 GiB

  8. Duration : 1 h 58 min

  9. Overall bit rate mode : Variable

  10. Overall bit rate : 7 934 kb/s

  11. Encoded date : UTC 2022-11-18 16:13:29

  12. Writing application : mkvmerge v71.1.0 ('Fortitude') 64-bit

  13. Writing library : libebml v1.4.4 + libmatroska v1.7.1


  14. Video

  15. ID : 1

  16. Format : AVC

  17. Format/Info : Advanced Video Codec

  18. Format profile : [email protected]

  19. Format settings : CABAC / 4 Ref Frames

  20. Format settings, CABAC : Yes

  21. Format settings, Reference frames : 4 frames

  22. Codec ID : V_MPEG4/ISO/AVC

  23. Duration : 1 h 58 min

  24. Bit rate mode : Variable

  25. Bit rate : 6 650 kb/s

  26. Maximum bit rate : 12.7 Mb/s

  27. Width : 1 920 pixels

  28. Height : 1 080 pixels

  29. Display aspect ratio : 16:9

  30. Frame rate mode : Constant

  31. Frame rate : 24.000 FPS

  32. Color space : YUV

  33. Chroma subsampling : 4:2:0

  34. Bit depth : 8 bits

  35. Scan type : Progressive

  36. Bits/(Pixel*Frame) : 0.134

  37. Stream size : 5.49 GiB (84%)

  38. Language : English

  39. Default : Yes

  40. Forced : No

  41. Color range : Limited

  42. Color primaries : BT.709

  43. Transfer characteristics : BT.709

  44. Matrix coefficients : BT.709


  45. Audio #1

  46. ID : 2

  47. Format : E-AC-3 JOC

  48. Format/Info : Enhanced AC-3 with Joint Object Coding

  49. Commercial name : Dolby Digital Plus with Dolby Atmos

  50. Codec ID : A_EAC3

  51. Duration : 1 h 58 min

  52. Bit rate mode : Constant

  53. Bit rate : 768 kb/s

  54. Channel(s) : 6 channels

  55. Channel layout : L R C LFE Ls Rs

  56. Sampling rate : 48.0 kHz

  57. Frame rate : 31.250 FPS (1536 SPF)

  58. Compression mode : Lossy

  59. Stream size : 650 MiB (10%)

  60. Language : English

  61. Service kind : Complete Main

  62. Default : Yes

  63. Forced : No

  64. Complexity index : 16

  65. Number of dynamic objects : 15

  66. Bed channel count : 1 channel

  67. Bed channel configuration : LFE


  68. Audio #2

  69. ID : 3

  70. Format : E-AC-3

  71. Format/Info : Enhanced AC-3

  72. Commercial name : Dolby Digital Plus

  73. Codec ID : A_EAC3

  74. Duration : 1 h 58 min

  75. Bit rate mode : Constant

  76. Bit rate : 256 kb/s

  77. Channel(s) : 6 channels

  78. Channel layout : L R C LFE Ls Rs

  79. Sampling rate : 48.0 kHz

  80. Frame rate : 31.250 FPS (1536 SPF)

  81. Compression mode : Lossy

  82. Stream size : 217 MiB (3%)

  83. Language : Chinese

  84. Service kind : Complete Main

  85. Default : No

  86. Forced : No


  87. Audio #3

  88. ID : 4

  89. Format : E-AC-3

  90. Format/Info : Enhanced AC-3

  91. Commercial name : Dolby Digital Plus

  92. Codec ID : A_EAC3

  93. Duration : 1 h 58 min

  94. Bit rate mode : Constant

  95. Bit rate : 256 kb/s

  96. Channel(s) : 6 channels

  97. Channel layout : L R C LFE Ls Rs

  98. Sampling rate : 48.0 kHz

  99. Frame rate : 31.250 FPS (1536 SPF)

  100. Compression mode : Lossy

  101. Stream size : 217 MiB (3%)

  102. Language : Chinese

  103. Service kind : Complete Main

  104. Default : No

  105. Forced : No


  106. Text #1

  107. ID : 5

  108. Format : UTF-8

  109. Codec ID : S_TEXT/UTF8

  110. Codec ID/Info : UTF-8 Plain Text

  111. Duration : 1 h 48 min

  112. Bit rate : 82 b/s

  113. Count of elements : 2097

  114. Stream size : 65.8 KiB (0%)

  115. Title : SDH

  116. Language : English

  117. Default : No

  118. Forced : No


  119. Text #2

  120. ID : 6

  121. Format : UTF-8

  122. Codec ID : S_TEXT/UTF8

  123. Codec ID/Info : UTF-8 Plain Text

  124. Duration : 1 h 57 min

  125. Bit rate : 55 b/s

  126. Count of elements : 1711

  127. Stream size : 47.8 KiB (0%)

  128. Title : Simplified

  129. Language : Chinese

  130. Default : No

  131. Forced : No


  132. Text #3

  133. ID : 7

  134. Format : UTF-8

  135. Codec ID : S_TEXT/UTF8

  136. Codec ID/Info : UTF-8 Plain Text

  137. Duration : 1 h 57 min

  138. Bit rate : 53 b/s

  139. Count of elements : 1709

  140. Stream size : 46.1 KiB (0%)

  141. Title : Traditional

  142. Language : Chinese

  143. Default : No

  144. Forced : No


  145. Text #4

  146. ID : 8

  147. Format : UTF-8

  148. Codec ID : S_TEXT/UTF8

  149. Codec ID/Info : UTF-8 Plain Text

  150. Duration : 1 h 57 min

  151. Bit rate : 53 b/s

  152. Count of elements : 1711

  153. Stream size : 46.0 KiB (0%)

  154. Title : Hong Kong

  155. Language : Chinese

  156. Default : No

  157. Forced : No


  158. Menu

  159. 01:49:14.583 : en:Credits


复制代码



文件下载


除非特别注明,本文『魔法奇缘2:解除魔法[国英多音轨/简繁英字幕].Disenchanted.2022.1080p.DSNP.WEB-DL.DDPA5.1.H.264-DreamHD 6.56GB』来源于互联网机器人自动抓取,非本站原创。 浮游电影网不对本文拥有版权,如有侵犯,请联系邮箱:fuyouu#yandex.com[#换成@]投诉。我们会在15个工作日内删除。 但烦请转载时请标明出处:“本文转载于『浮游电影网』,原文地址:https://www.fuyouu.com/22864.html

评论吧骚年!

发表你的见解   

昵称*

E-mail*(建议输入,以便收到博主回复的提示邮件)

验证码*

您可以使用eMule或eMule Mod(Windows)、aMule(Win、Linux、Mac)等软件下载eD2k链接。。
eMule收藏集(.emulecollection)文件是您选中的所有链接的列表文件。eMule可以直接下载它们。
按住SHIFT键选择可以选中多个选择框。
可用文件名和大小选择器来选择文件。
文件名选择器帮您根据文件名称或后缀来选择文件。不分大小写。
符号使用:
和:空格( )、+
不包含:-
或:|
转义:一对英文引号("");
匹配开头:^
匹配结尾:$
例如:
选中所有名称中包含有“eMule”或“0.49c”字眼,但不包含有“exe”字眼的:emule|0.49c -exe
选中所有名称的开头是“eMule”,结尾是“0.49c”的:^emule 0.49c$
选中所有名称中带有“eMule 0.49c”的(必须是“eMule 0.49c”,中间没有别的字符,不能是“eMule fake 0.49c”),需要转义:"emule 0.49c"
大小选择器帮您根据文件大小选择文件。