当前位置: 首页 >> 欧美电影 >> 黑亚当[中文字幕].Black.Adam.2022.2160p.WEB-DL.DDP.5.1.Atmos.H.265-DreamHD 10.95GB >> 正文

黑亚当[中文字幕].Black.Adam.2022.2160p.WEB-DL.DDP.5.1.Atmos.H.265-DreamHD 10.95GB

2022年11月22日 17:00:46     电影发布:来源于网络     电影分类:欧美电影     评论(0)    

◎标 题 黑亚当

◎译 名 霹雳亚当 / 黑亞當(港 / 台)

◎片 名 Black Adam

◎年 代 2022

◎产 地 美国 / 加拿大 / 新西兰 / 匈牙利

◎类 别 动作 / 科幻 / 奇幻 / 冒险

◎语 言 英语

◎上映日期 2022-11(中国大陆) / 2022-10-19(法国) / 2022-10-21(美国)

◎IMDb评分 7.1/10 (42334人评价)

◎IMDb链接 https://www.imdb.com/title/tt6443346/

◎豆瓣链接 https://movie.douban.com/subject/26959697/

◎片 长 125分钟

◎导 演 佐米·希尔拉 Jaume Collet-Serra

◎编 剧 亚当·希泰凯尔 Adam Sztykiel

罗里·海恩斯 Rory Haines

苏哈·诺什瓦尼 Sohrab Noshirvani

比尔·帕克 Bill Parker

C·C·贝克 C.C. Beck

奥托·班德 Otto Binder

◎演 员 道恩·强森 Dwayne Johnson

阿尔迪斯·霍吉 Aldis Hodge

皮尔斯·布鲁斯南 Pierce Brosnan

诺亚·琴蒂内奥 Noah Centineo

莎拉·夏希 Sarah Shahi

昆泰莎·斯文戴尔 Quintessa Swindell

马尔万·肯扎里 Marwan Kenzari

博德希·萨邦圭 Bodhi Sabongui

穆罕默德·阿米尔 Mohammed Amer

詹姆斯·卡萨蒂-莫耶尔 James Cusati-Moyer

哈隆·克里斯蒂安 Jalon Christian

本杰明·帕特森 Benjamin Patterson

奥德娅·哈尔维 Odelya Halevi

乌利·拉图基孚 Uli Latukefu

詹尼佛·霍兰德 Jennifer Holland

亨利·温克勒 Henry Winkler

哈伊姆·吉拉菲 Chaim Jeraffi

杰曼·翰苏 Djimon Hounsou

桑娜·海恩斯 Sanna Haynes

托内亚·斯图尔特 Tonea Stewart

帕特里克·萨邦圭 Patrick Sabongui

约瑟夫·盖特 Joseph Gatt

杰梅因·里弗斯 Jermaine Rivers

里贾纳·陈婷 Regina Ting Chen

卡梅隆·莫伊尔 Cameron Moir

德里克·罗素 Derek Russo

小安杰尔·罗萨里奥 Angel Rosario Jr.

克里斯托弗·马修·库克 Christopher Matthew Cook

娜塔莉·伯恩 Natalie Burn

亨利·卡维尔 Henry Cavill

维奥拉·戴维斯 Viola Davis

施奎塔·詹姆斯 Shiquita James

拉希姆·赖利 Rahiem Riley

海拉姆·加西亚 Hiram Garcia

道恩·强森 Dwayne Johnson

劳伦斯·谢尔 Lawrence Sher

汤姆·迈耶 Tom Meyer

Kevin Gilbert Kevin Gilbert

◎简 介

这个世界需要超级英雄…… 黑亚当降临。

黑亚当(道恩·强森 饰)被赋予了古代诸神无所不能的力量,但很快就被封印。近五千年后,他终于重见天日,并将在现代世界以独一无二的方式行使正义。

  1. ##### MediaInfo ######

  2. General

  3. Unique ID : 172747865863173886778758204314245765647 (0x81F6075D6FE86F3D0E2C8AF1DA719A0F)

  4. Complete name : Black.Adam.2022.2160p.WEB-DL.DDP.5.1.Atmos.H.265-DreamHD.mkv

  5. Format : Matroska

  6. Format version : Version 4

  7. File size : 10.9 GiB

  8. Duration : 2 h 4 min

  9. Overall bit rate : 12.6 Mb/s

  10. Encoded date : UTC 2022-11-22 06:57:07

  11. Writing application : mkvmerge v71.1.0 ('Fortitude') 64-bit

  12. Writing library : libebml v1.4.4 + libmatroska v1.7.1

  13. Video

  14. ID : 1

  15. Format : HEVC

  16. Format/Info : High Efficiency Video Coding

  17. Format profile : Main [email protected]@High

  18. Codec ID : V_MPEGH/ISO/HEVC

  19. Duration : 2 h 4 min

  20. Bit rate : 11.8 Mb/s

  21. Width : 3 840 pixels

  22. Height : 1 606 pixels

  23. Display aspect ratio : 2.40:1

  24. Frame rate mode : Constant

  25. Frame rate : 23.976 FPS

  26. Color space : YUV

  27. Chroma subsampling : 4:2:0

  28. Bit depth : 10 bits

  29. Bits/(Pixel*Frame) : 0.080

  30. Stream size : 10.3 GiB (94%)

  31. Language : English

  32. Default : Yes

  33. Forced : No

  34. Color range : Limited

  35. Color primaries : BT.709

  36. Transfer characteristics : BT.709

  37. Matrix coefficients : BT.709

  38. Audio

  39. ID : 2

  40. Format : E-AC-3 JOC

  41. Format/Info : Enhanced AC-3 with Joint Object Coding

  42. Commercial name : Dolby Digital Plus with Dolby Atmos

  43. Codec ID : A_EAC3

  44. Duration : 2 h 4 min

  45. Bit rate mode : Constant

  46. Bit rate : 768 kb/s

  47. Channel(s) : 6 channels

  48. Channel layout : L R C LFE Ls Rs

  49. Sampling rate : 48.0 kHz

  50. Frame rate : 31.250 FPS (1536 SPF)

  51. Compression mode : Lossy

  52. Stream size : 686 MiB (6%)

  53. Language : English

  54. Service kind : Complete Main

  55. Default : Yes

  56. Forced : No

  57. Complexity index : 16

  58. Number of dynamic objects : 15

  59. Bed channel count : 1 channel

  60. Bed channel configuration : LFE

  61. Text #1

  62. ID : 3

  63. Format : UTF-8

  64. Codec ID : S_TEXT/UTF8

  65. Codec ID/Info : UTF-8 Plain Text

  66. Duration : 1 h 42 min

  67. Bit rate : 2 b/s

  68. Count of elements : 76

  69. Stream size : 1.61 KiB (0%)

  70. Title : Forced

  71. Language : English

  72. Default : Yes

  73. Forced : Yes

  74. Text #2

  75. ID : 4

  76. Format : UTF-8

  77. Codec ID : S_TEXT/UTF8

  78. Codec ID/Info : UTF-8 Plain Text

  79. Duration : 2 h 3 min

  80. Bit rate : 38 b/s

  81. Count of elements : 1264

  82. Stream size : 34.7 KiB (0%)

  83. Title : Traditional

  84. Language : Chinese

  85. Default : No

  86. Forced : No

  87. Text #3

  88. ID : 5

  89. Format : UTF-8

  90. Codec ID : S_TEXT/UTF8

  91. Codec ID/Info : UTF-8 Plain Text

  92. Duration : 2 h 3 min

  93. Bit rate : 63 b/s

  94. Count of elements : 1260

  95. Stream size : 57.1 KiB (0%)

  96. Language : Arabic

  97. Default : No

  98. Forced : No

  99. Text #4

  100. ID : 6

  101. Format : UTF-8

  102. Codec ID : S_TEXT/UTF8

  103. Codec ID/Info : UTF-8 Plain Text

  104. Duration : 2 h 3 min

  105. Bit rate : 43 b/s

  106. Count of elements : 1258

  107. Stream size : 39.3 KiB (0%)

  108. Title : Latin America

  109. Language : Spanish

  110. Default : No

  111. Forced : No

  112. Text #5

  113. ID : 7

  114. Format : UTF-8

  115. Codec ID : S_TEXT/UTF8

  116. Codec ID/Info : UTF-8 Plain Text

  117. Duration : 2 h 3 min

  118. Bit rate : 37 b/s

  119. Count of elements : 1294

  120. Stream size : 34.3 KiB (0%)

  121. Language : French

  122. Default : No

  123. Forced : No

  124. Text #6

  125. ID : 8

  126. Format : UTF-8

  127. Codec ID : S_TEXT/UTF8

  128. Codec ID/Info : UTF-8 Plain Text

  129. Duration : 1 h 56 min

  130. Bit rate : 56 b/s

  131. Count of elements : 1748

  132. Stream size : 47.9 KiB (0%)

  133. Title : SDH

  134. Language : Italian

  135. Default : No

  136. Forced : No

  137. Text #7

  138. ID : 9

  139. Format : UTF-8

  140. Codec ID : S_TEXT/UTF8

  141. Codec ID/Info : UTF-8 Plain Text

  142. Duration : 1 h 56 min

  143. Bit rate : 40 b/s

  144. Count of elements : 1254

  145. Stream size : 34.5 KiB (0%)

  146. Language : Korean

  147. Default : No

  148. Forced : No

  149. Text #8

  150. ID : 10

  151. Format : UTF-8

  152. Codec ID : S_TEXT/UTF8

  153. Codec ID/Info : UTF-8 Plain Text

  154. Duration : 2 h 3 min

  155. Bit rate : 43 b/s

  156. Count of elements : 1237

  157. Stream size : 39.0 KiB (0%)

  158. Title : Brazil

  159. Language : Portuguese

  160. Default : No

  161. Forced : No

  162. Menu

  163. 00:00:00.000 : en:Chapter 01

  164. 00:10:23.581 : en:Chapter 02

  165. 00:19:57.614 : en:Chapter 03

  166. 00:29:29.894 : en:Chapter 04

  167. 00:38:35.148 : en:Chapter 05

  168. 00:50:42.083 : en:Chapter 06

  169. 01:00:21.413 : en:Chapter 07

  170. 01:09:44.726 : en:Chapter 08

  171. 01:19:36.276 : en:Chapter 09

  172. 01:29:12.310 : en:Chapter 10

  173. 01:40:20.395 : en:Chapter 11

  174. 01:49:40.997 : en:Chapter 12

  175. 01:53:13.084 : en:Chapter 13


复制代码



文件下载


除非特别注明,本文『黑亚当[中文字幕].Black.Adam.2022.2160p.WEB-DL.DDP.5.1.Atmos.H.265-DreamHD 10.95GB』来源于互联网机器人自动抓取,非本站原创。 浮游电影网不对本文拥有版权,如有侵犯,请联系邮箱:fuyouu#yandex.com[#换成@]投诉。我们会在15个工作日内删除。 但烦请转载时请标明出处:“本文转载于『浮游电影网』,原文地址:https://www.fuyouu.com/22861.html

评论吧骚年!

发表你的见解   

昵称*

E-mail*(建议输入,以便收到博主回复的提示邮件)

验证码*

您可以使用eMule或eMule Mod(Windows)、aMule(Win、Linux、Mac)等软件下载eD2k链接。。
eMule收藏集(.emulecollection)文件是您选中的所有链接的列表文件。eMule可以直接下载它们。
按住SHIFT键选择可以选中多个选择框。
可用文件名和大小选择器来选择文件。
文件名选择器帮您根据文件名称或后缀来选择文件。不分大小写。
符号使用:
和:空格( )、+
不包含:-
或:|
转义:一对英文引号("");
匹配开头:^
匹配结尾:$
例如:
选中所有名称中包含有“eMule”或“0.49c”字眼,但不包含有“exe”字眼的:emule|0.49c -exe
选中所有名称的开头是“eMule”,结尾是“0.49c”的:^emule 0.49c$
选中所有名称中带有“eMule 0.49c”的(必须是“eMule 0.49c”,中间没有别的字符,不能是“eMule fake 0.49c”),需要转义:"emule 0.49c"
大小选择器帮您根据文件大小选择文件。