当前位置: 首页 >> 欧美电影 >> 非凡公主[简繁英字幕].The.Princess.2022.2160p.DSNP.WEB-DL.H265.10bit.HDR.DDP5.1-TAGWEB 10.55GB >> 正文

非凡公主[简繁英字幕].The.Princess.2022.2160p.DSNP.WEB-DL.H265.10bit.HDR.DDP5.1-TAGWEB 10.55GB

2022年11月20日 16:51:59     电影发布:来源于网络     电影分类:欧美电影     评论(0)    

◎标 题 非凡公主

◎译 名 公主

◎片 名 The Princess

◎年 代 2022

◎产 地 美国

◎类 别 剧情 / 动作 / 惊悚 / 奇幻

◎语 言 英语

◎上映日期 2022-07-01(美国网络)

◎IMDb评分 5.3/10 (1561人评价)

◎IMDb链接 https://www.imdb.com/title/tt13406136/

◎豆瓣链接 https://movie.douban.com/subject/35864061/

◎导 演 黎文杰 Le-Van Kiet

◎编 剧 本·卢斯蒂格 Ben Lustig

杰克·桑顿 Jake Thornton

Jake Thornton

◎演 员 乔伊·金 Joey King

吴青芸 Thanh Van Ngo

伊沃·阿拉科夫 Ivo Arakov

马丁·塔斯科夫 Martin Taskov

瓦西尔·托舍夫 Vasil Toshev

博日达尔·赫里斯托夫 Bozhidar Hristov

德西·斯拉沃娃 Dessy Slavova

◎简 介

Joey King饰演一名年轻的王室成员,爱刀剑胜过王冠,她必须从无情的雇佣兵手中拯救王国。

  1. ##### MediaInfo ######

  2. General

  3. Unique ID : 258112287137763260017122673592362411762 (0xC22E9E47AEBDFAD07A4AB6D4733926F2)

  4. Complete name : The.Princess.2022.2160p.DSNP.WEB-DL.H265.10bit.HDR.DDP5.1-TAGWEB.mkv

  5. Format : Matroska

  6. Format version : Version 4

  7. File size : 10.5 GiB

  8. Duration : 1 h 33 min

  9. Overall bit rate : 16.1 Mb/s

  10. Encoded date : UTC 2022-11-14 04:36:13

  11. Writing application : mkvmerge v71.1.0 ('Fortitude') 64-bit

  12. Writing library : libebml v1.4.4 + libmatroska v1.7.1

  13. Video

  14. ID : 1

  15. Format : HEVC

  16. Format/Info : High Efficiency Video Coding

  17. Format profile : Main [email protected]@High

  18. HDR format : SMPTE ST 2086, HDR10 compatible

  19. Codec ID : V_MPEGH/ISO/HEVC

  20. Duration : 1 h 33 min

  21. Bit rate : 15.8 Mb/s

  22. Width : 3 840 pixels

  23. Height : 2 160 pixels

  24. Display aspect ratio : 16:9

  25. Frame rate mode : Constant

  26. Frame rate : 24.000 FPS

  27. Color space : YUV

  28. Chroma subsampling : 4:2:0

  29. Bit depth : 10 bits

  30. Bits/(Pixel*Frame) : 0.079

  31. Stream size : 10.4 GiB (98%)

  32. Language : English

  33. Default : Yes

  34. Forced : No

  35. Color range : Limited

  36. Color primaries : BT.2020

  37. Transfer characteristics : PQ

  38. Matrix coefficients : BT.2020 non-constant

  39. Mastering display color primaries : Display P3

  40. Mastering display luminance : min: 0.0001 cd/m2, max: 1000 cd/m2

  41. Audio

  42. ID : 2

  43. Format : E-AC-3

  44. Format/Info : Enhanced AC-3

  45. Commercial name : Dolby Digital Plus

  46. Codec ID : A_EAC3

  47. Duration : 1 h 33 min

  48. Bit rate mode : Constant

  49. Bit rate : 256 kb/s

  50. Channel(s) : 6 channels

  51. Channel layout : L R C LFE Ls Rs

  52. Sampling rate : 48.0 kHz

  53. Frame rate : 31.250 FPS (1536 SPF)

  54. Compression mode : Lossy

  55. Stream size : 172 MiB (2%)

  56. Title : English

  57. Language : English

  58. Service kind : Complete Main

  59. Default : Yes

  60. Forced : No

  61. Text #1

  62. ID : 3

  63. Format : UTF-8

  64. Codec ID : S_TEXT/UTF8

  65. Codec ID/Info : UTF-8 Plain Text

  66. Duration : 1 h 32 min

  67. Bit rate : 22 b/s

  68. Count of elements : 667

  69. Stream size : 15.3 KiB (0%)

  70. Title : 中文 (简体)

  71. Language : Chinese

  72. Default : Yes

  73. Forced : No

  74. Text #2

  75. ID : 4

  76. Format : UTF-8

  77. Codec ID : S_TEXT/UTF8

  78. Codec ID/Info : UTF-8 Plain Text

  79. Duration : 1 h 32 min

  80. Bit rate : 21 b/s

  81. Count of elements : 664

  82. Stream size : 14.5 KiB (0%)

  83. Title : 中文 (繁體,中國香港特別行政區)

  84. Language : Chinese

  85. Default : No

  86. Forced : No

  87. Text #3

  88. ID : 5

  89. Format : UTF-8

  90. Codec ID : S_TEXT/UTF8

  91. Codec ID/Info : UTF-8 Plain Text

  92. Duration : 1 h 32 min

  93. Bit rate : 23 b/s

  94. Count of elements : 667

  95. Stream size : 15.8 KiB (0%)

  96. Title : 中文 (繁體)

  97. Language : Chinese

  98. Default : No

  99. Forced : No

  100. Text #4

  101. ID : 6

  102. Format : UTF-8

  103. Codec ID : S_TEXT/UTF8

  104. Codec ID/Info : UTF-8 Plain Text

  105. Duration : 1 h 25 min

  106. Bit rate : 35 b/s

  107. Count of elements : 878

  108. Stream size : 22.2 KiB (0%)

  109. Title : English

  110. Language : English

  111. Default : No

  112. Forced : No

  113. Text #5

  114. ID : 7

  115. Format : UTF-8

  116. Codec ID : S_TEXT/UTF8

  117. Codec ID/Info : UTF-8 Plain Text

  118. Duration : 1 h 32 min

  119. Bit rate : 23 b/s

  120. Count of elements : 647

  121. Stream size : 15.8 KiB (0%)

  122. Title : ?e?tina

  123. Language : Czech

  124. Default : No

  125. Forced : No

  126. Text #6

  127. ID : 8

  128. Format : UTF-8

  129. Codec ID : S_TEXT/UTF8

  130. Codec ID/Info : UTF-8 Plain Text

  131. Duration : 1 h 31 min

  132. Bit rate : 24 b/s

  133. Count of elements : 616

  134. Stream size : 16.6 KiB (0%)

  135. Title : dansk

  136. Language : Danish

  137. Default : No

  138. Forced : No

  139. Text #7

  140. ID : 9

  141. Format : UTF-8

  142. Codec ID : S_TEXT/UTF8

  143. Codec ID/Info : UTF-8 Plain Text

  144. Duration : 1 h 31 min

  145. Bit rate : 24 b/s

  146. Count of elements : 635

  147. Stream size : 16.4 KiB (0%)

  148. Title : Deutsch

  149. Language : German

  150. Default : No

  151. Forced : No

  152. Text #8

  153. ID : 10

  154. Format : UTF-8

  155. Codec ID : S_TEXT/UTF8

  156. Codec ID/Info : UTF-8 Plain Text

  157. Duration : 1 h 32 min

  158. Bit rate : 41 b/s

  159. Count of elements : 664

  160. Stream size : 28.6 KiB (0%)

  161. Title : Ελληνικ?

  162. Language : Greek

  163. Default : No

  164. Forced : No

  165. Text #9

  166. ID : 11

  167. Format : UTF-8

  168. Codec ID : S_TEXT/UTF8

  169. Codec ID/Info : UTF-8 Plain Text

  170. Duration : 1 h 32 min

  171. Bit rate : 23 b/s

  172. Count of elements : 633

  173. Stream size : 16.1 KiB (0%)

  174. Title : espa?ol (Latinoamérica)

  175. Language : Spanish

  176. Default : No

  177. Forced : No

  178. Text #10

  179. ID : 12

  180. Format : UTF-8

  181. Codec ID : S_TEXT/UTF8

  182. Codec ID/Info : UTF-8 Plain Text

  183. Duration : 1 h 32 min

  184. Bit rate : 22 b/s

  185. Count of elements : 663

  186. Stream size : 15.5 KiB (0%)

  187. Title : espa?ol (Espa?a)

  188. Language : Spanish

  189. Default : No

  190. Forced : No

  191. Text #11

  192. ID : 13

  193. Format : UTF-8

  194. Codec ID : S_TEXT/UTF8

  195. Codec ID/Info : UTF-8 Plain Text

  196. Duration : 1 h 31 min

  197. Bit rate : 25 b/s

  198. Count of elements : 663

  199. Stream size : 16.9 KiB (0%)

  200. Title : suomi

  201. Language : Finnish

  202. Default : No

  203. Forced : No

  204. Text #12

  205. ID : 14

  206. Format : UTF-8

  207. Codec ID : S_TEXT/UTF8

  208. Codec ID/Info : UTF-8 Plain Text

  209. Duration : 1 h 32 min

  210. Bit rate : 25 b/s

  211. Count of elements : 658

  212. Stream size : 17.1 KiB (0%)

  213. Title : fran?ais (France)

  214. Language : French

  215. Default : No

  216. Forced : No

  217. Text #13

  218. ID : 15

  219. Format : UTF-8

  220. Codec ID : S_TEXT/UTF8

  221. Codec ID/Info : UTF-8 Plain Text

  222. Duration : 1 h 32 min

  223. Bit rate : 23 b/s

  224. Count of elements : 666

  225. Stream size : 16.1 KiB (0%)

  226. Title : magyar

  227. Language : Hungarian

  228. Default : No

  229. Forced : No

  230. Text #14

  231. ID : 16

  232. Format : UTF-8

  233. Codec ID : S_TEXT/UTF8

  234. Codec ID/Info : UTF-8 Plain Text

  235. Duration : 1 h 31 min

  236. Bit rate : 23 b/s

  237. Count of elements : 666

  238. Stream size : 15.9 KiB (0%)

  239. Title : italiano

  240. Language : Italian

  241. Default : No

  242. Forced : No

  243. Text #15

  244. ID : 17

  245. Format : UTF-8

  246. Codec ID : S_TEXT/UTF8

  247. Codec ID/Info : UTF-8 Plain Text

  248. Duration : 1 h 32 min

  249. Bit rate : 21 b/s

  250. Count of elements : 629

  251. Stream size : 14.4 KiB (0%)

  252. Title : 日本

  253. Language : Japanese

  254. Default : No

  255. Forced : No

  256. Text #16

  257. ID : 18

  258. Format : UTF-8

  259. Codec ID : S_TEXT/UTF8

  260. Codec ID/Info : UTF-8 Plain Text

  261. Duration : 1 h 32 min

  262. Bit rate : 27 b/s

  263. Count of elements : 666

  264. Stream size : 18.7 KiB (0%)

  265. Title : ???

  266. Language : Korean

  267. Default : No

  268. Forced : No

  269. Text #17

  270. ID : 19

  271. Format : UTF-8

  272. Codec ID : S_TEXT/UTF8

  273. Codec ID/Info : UTF-8 Plain Text

  274. Duration : 1 h 31 min

  275. Bit rate : 25 b/s

  276. Count of elements : 507

  277. Stream size : 17.0 KiB (0%)

  278. Title : norsk bokm?l

  279. Language : Norwegian Bokmal

  280. Default : No

  281. Forced : No

  282. Text #18

  283. ID : 20

  284. Format : UTF-8

  285. Codec ID : S_TEXT/UTF8

  286. Codec ID/Info : UTF-8 Plain Text

  287. Duration : 1 h 31 min

  288. Bit rate : 23 b/s

  289. Count of elements : 544

  290. Stream size : 15.8 KiB (0%)

  291. Title : Nederlands

  292. Language : Dutch

  293. Default : No

  294. Forced : No

  295. Text #19

  296. ID : 21

  297. Format : UTF-8

  298. Codec ID : S_TEXT/UTF8

  299. Codec ID/Info : UTF-8 Plain Text

  300. Duration : 1 h 32 min

  301. Bit rate : 23 b/s

  302. Count of elements : 655

  303. Stream size : 16.3 KiB (0%)

  304. Title : polski

  305. Language : Polish

  306. Default : No

  307. Forced : No

  308. Text #20

  309. ID : 22

  310. Format : UTF-8

  311. Codec ID : S_TEXT/UTF8

  312. Codec ID/Info : UTF-8 Plain Text

  313. Duration : 1 h 32 min

  314. Bit rate : 23 b/s

  315. Count of elements : 661

  316. Stream size : 15.9 KiB (0%)

  317. Title : português (Brasil)

  318. Language : Portuguese

  319. Default : No

  320. Forced : No

  321. Text #21

  322. ID : 23

  323. Format : UTF-8

  324. Codec ID : S_TEXT/UTF8

  325. Codec ID/Info : UTF-8 Plain Text

  326. Duration : 1 h 32 min

  327. Bit rate : 23 b/s

  328. Count of elements : 663

  329. Stream size : 15.7 KiB (0%)

  330. Title : português (Portugal)

  331. Language : Portuguese

  332. Default : No

  333. Forced : No

  334. Text #22

  335. ID : 24

  336. Format : UTF-8

  337. Codec ID : S_TEXT/UTF8

  338. Codec ID/Info : UTF-8 Plain Text

  339. Duration : 1 h 32 min

  340. Bit rate : 23 b/s

  341. Count of elements : 594

  342. Stream size : 16.3 KiB (0%)

  343. Title : roman?

  344. Language : Romanian

  345. Default : No

  346. Forced : No

  347. Text #23

  348. ID : 25

  349. Format : UTF-8

  350. Codec ID : S_TEXT/UTF8

  351. Codec ID/Info : UTF-8 Plain Text

  352. Duration : 1 h 32 min

  353. Bit rate : 23 b/s

  354. Count of elements : 664

  355. Stream size : 16.3 KiB (0%)

  356. Title : sloven?ina

  357. Language : Slovak

  358. Default : No

  359. Forced : No

  360. Text #24

  361. ID : 26

  362. Format : UTF-8

  363. Codec ID : S_TEXT/UTF8

  364. Codec ID/Info : UTF-8 Plain Text

  365. Duration : 1 h 31 min

  366. Bit rate : 25 b/s

  367. Count of elements : 649

  368. Stream size : 17.0 KiB (0%)

  369. Title : svenska

  370. Language : Swedish

  371. Default : No

  372. Forced : No

  373. Text #25

  374. ID : 27

  375. Format : UTF-8

  376. Codec ID : S_TEXT/UTF8

  377. Codec ID/Info : UTF-8 Plain Text

  378. Duration : 1 h 32 min

  379. Bit rate : 25 b/s

  380. Count of elements : 666

  381. Stream size : 17.0 KiB (0%)

  382. Title : Türk?e

  383. Language : Turkish

  384. Default : No

  385. Forced : No

  386. Menu

  387. 01:27:45.583 : en:Credits


复制代码



文件下载


除非特别注明,本文『非凡公主[简繁英字幕].The.Princess.2022.2160p.DSNP.WEB-DL.H265.10bit.HDR.DDP5.1-TAGWEB 10.55GB』来源于互联网机器人自动抓取,非本站原创。 浮游电影网不对本文拥有版权,如有侵犯,请联系邮箱:fuyouu#yandex.com[#换成@]投诉。我们会在15个工作日内删除。 但烦请转载时请标明出处:“本文转载于『浮游电影网』,原文地址:https://www.fuyouu.com/22859.html

评论吧骚年!

发表你的见解   

昵称*

E-mail*(建议输入,以便收到博主回复的提示邮件)

验证码*

您可以使用eMule或eMule Mod(Windows)、aMule(Win、Linux、Mac)等软件下载eD2k链接。。
eMule收藏集(.emulecollection)文件是您选中的所有链接的列表文件。eMule可以直接下载它们。
按住SHIFT键选择可以选中多个选择框。
可用文件名和大小选择器来选择文件。
文件名选择器帮您根据文件名称或后缀来选择文件。不分大小写。
符号使用:
和:空格( )、+
不包含:-
或:|
转义:一对英文引号("");
匹配开头:^
匹配结尾:$
例如:
选中所有名称中包含有“eMule”或“0.49c”字眼,但不包含有“exe”字眼的:emule|0.49c -exe
选中所有名称的开头是“eMule”,结尾是“0.49c”的:^emule 0.49c$
选中所有名称中带有“eMule 0.49c”的(必须是“eMule 0.49c”,中间没有别的字符,不能是“eMule fake 0.49c”),需要转义:"emule 0.49c"
大小选择器帮您根据文件大小选择文件。