当前位置: 首页 >> 欧美电影 >> 月球陨落[杜比视界版本][国语配音/中文字幕].Moonfall.2022.2160p.WEB-DL.H265.DV.DDP5.1.2Audio-NUMTV 9.16GB >> 正文

月球陨落[杜比视界版本][国语配音/中文字幕].Moonfall.2022.2160p.WEB-DL.H265.DV.DDP5.1.2Audio-NUMTV 9.16GB

2022年11月19日 20:15:30     电影发布:来源于网络     电影分类:欧美电影     评论(0)    

◎标 题 月球陨落

◎译 名 月球坠落

◎片 名 Moonfall

◎年 代 2022

◎产 地 美国 / 中国大陆 / 英国

◎类 别 科幻 / 灾难

◎语 言 英语 / 汉语普通话

◎上映日期 2022-03-25(中国大陆) / 2022-02-04(美国)

◎IMDb评分 5.2/10 (26211人评价)

◎IMDb链接 https://www.imdb.com/title/tt5834426/

◎豆瓣评分 5.6/10 (24000人评价)

◎豆瓣链接 https://movie.douban.com/subject/26825482/

◎片 长 130分钟

◎导 演 罗兰·艾默里奇 Roland Emmerich

◎编 剧 罗兰·艾默里奇 Roland Emmerich

哈洛德·克卢瑟 Harald Kloser

斯宾塞·科恩 Spenser Cohen

◎演 员 哈莉·贝瑞 Halle Berry

帕特里克·威尔森 Patrick Wilson

约翰·布莱德利 John Bradley

于文文 Kelly Yu

迈克尔·佩纳 Michael Peña

唐纳德·萨瑟兰 Donald Sutherland

查理·普拉默 Charlie Plummer

艾米·伊库瓦克 Eme Ikwuakor

卡罗林纳·巴特察克 Carolina Bartczak

马克西姆·罗伊 Maxim Roy

斯蒂夫·博加尔特 Stephen Bogaert

蒂龙·本斯金 Tyrone Benskin

乔什·克鲁达斯 Josh Cruddas

凯蒂·布赖尔 Katy Breier

克里斯·桑迪福德 Chris Sandiford

兰迪·托马斯 Randy Thomas

克里什陶·马尔尚 Krista Marchand

泰勒·艾略特·伯克 Tyler Elliot Burke

娜塔莉·希波蒂 Nathaly Thibault

贾·史密斯-约翰逊 Jaa Smith-Johnson

史蒂文·皮奥维森 Steven Piovesan

大卫·泰勒 David Tyler

罗兰·艾默里奇 Roland Emmerich

王中军 Zhongjun Wang

王中磊 Zhonglei Wang

马里奥·达维尼翁 Mario Davignon

费利克斯·安托万·杜瓦尔 Félix-Antoine Duval

◎简 介

仰望星空,⽉亮⼀向是那么的永恒。但在不久的将来,⽉球被⼀股神秘的⼒量驱使离开⽉球轨道,向我们熟知的地球⻜速⽽来,⽽在众⼈都放弃希望,地球上如世界末⽇⼀般时,⼀⽀看似乌合之众的团队决定为地球进⾏最后⼀搏,冒险为保卫⼈类最后⼀战。

  1. ##### MediaInfo ######

  2. General

  3. Complete name : 月球陨落.Moonfall.2022.2160p.WEB-DL.H265.DV.DDP5.1.2Audio-NUMTV.mp4

  4. Format : MPEG-4

  5. Format profile : Base Media / Version 2

  6. Codec ID : mp42 (mp42/iso6/isom/msdh/dby1)

  7. File size : 9.16 GiB

  8. Duration : 2 h 10 min

  9. Overall bit rate : 10.1 Mb/s

  10. Encoded date : UTC 2022-11-18 12:18:03

  11. Tagged date : UTC 2022-11-18 12:18:03

  12. Video

  13. ID : 1

  14. Format : HEVC

  15. Format/Info : High Efficiency Video Coding

  16. Format profile : Main [email protected]@Main

  17. HDR format : Dolby Vision, Version 1.0, dvhe.05.06, BL+RPU

  18. Codec ID : dvhe

  19. Codec ID/Info : High Efficiency Video Coding with Dolby Vision

  20. Duration : 2 h 10 min

  21. Bit rate : 9 291 kb/s

  22. Width : 3 840 pixels

  23. Height : 1 600 pixels

  24. Display aspect ratio : 2.40:1

  25. Frame rate mode : Constant

  26. Frame rate : 24.000 FPS

  27. Color space : YUV

  28. Chroma subsampling : 4:2:0

  29. Bit depth : 10 bits

  30. Bits/(Pixel*Frame) : 0.063

  31. Stream size : 8.46 GiB (92%)

  32. Default : Yes

  33. Alternate group : 1

  34. Encoded date : UTC 2022-11-18 12:18:03

  35. Tagged date : UTC 2022-11-18 12:18:03

  36. Color range : Full

  37. Codec configuration box : hvcC+dvcC

  38. Audio #1

  39. ID : 2

  40. Format : E-AC-3

  41. Format/Info : Enhanced AC-3

  42. Commercial name : Dolby Digital Plus

  43. Codec ID : ac-3

  44. Duration : 2 h 10 min

  45. Bit rate mode : Constant

  46. Bit rate : 384 kb/s

  47. Channel(s) : 6 channels

  48. Channel layout : L R C LFE Ls Rs

  49. Sampling rate : 48.0 kHz

  50. Frame rate : 31.250 FPS (1536 SPF)

  51. Compression mode : Lossy

  52. Stream size : 358 MiB (4%)

  53. Language : English

  54. Service kind : Complete Main

  55. Default : Yes

  56. Alternate group : 2

  57. Encoded date : UTC 2022-11-18 12:18:03

  58. Tagged date : UTC 2022-11-18 12:18:03

  59. Audio #2

  60. ID : 3

  61. Format : E-AC-3

  62. Format/Info : Enhanced AC-3

  63. Commercial name : Dolby Digital Plus

  64. Codec ID : ac-3

  65. Duration : 2 h 10 min

  66. Bit rate mode : Constant

  67. Bit rate : 384 kb/s

  68. Channel(s) : 6 channels

  69. Channel layout : L R C LFE Ls Rs

  70. Sampling rate : 48.0 kHz

  71. Frame rate : 31.250 FPS (1536 SPF)

  72. Compression mode : Lossy

  73. Stream size : 358 MiB (4%)

  74. Language : Chinese

  75. Service kind : Complete Main

  76. Default : No

  77. Alternate group : 2

  78. Encoded date : UTC 2022-11-18 12:18:03

  79. Tagged date : UTC 2022-11-18 12:18:03


复制代码



文件下载


除非特别注明,本文『月球陨落[杜比视界版本][国语配音/中文字幕].Moonfall.2022.2160p.WEB-DL.H265.DV.DDP5.1.2Audio-NUMTV 9.16GB』来源于互联网机器人自动抓取,非本站原创。 浮游电影网不对本文拥有版权,如有侵犯,请联系邮箱:fuyouu#yandex.com[#换成@]投诉。我们会在15个工作日内删除。 但烦请转载时请标明出处:“本文转载于『浮游电影网』,原文地址:https://www.fuyouu.com/22857.html

评论吧骚年!

发表你的见解   

昵称*

E-mail*(建议输入,以便收到博主回复的提示邮件)

验证码*

您可以使用eMule或eMule Mod(Windows)、aMule(Win、Linux、Mac)等软件下载eD2k链接。。
eMule收藏集(.emulecollection)文件是您选中的所有链接的列表文件。eMule可以直接下载它们。
按住SHIFT键选择可以选中多个选择框。
可用文件名和大小选择器来选择文件。
文件名选择器帮您根据文件名称或后缀来选择文件。不分大小写。
符号使用:
和:空格( )、+
不包含:-
或:|
转义:一对英文引号("");
匹配开头:^
匹配结尾:$
例如:
选中所有名称中包含有“eMule”或“0.49c”字眼,但不包含有“exe”字眼的:emule|0.49c -exe
选中所有名称的开头是“eMule”,结尾是“0.49c”的:^emule 0.49c$
选中所有名称中带有“eMule 0.49c”的(必须是“eMule 0.49c”,中间没有别的字符,不能是“eMule fake 0.49c”),需要转义:"emule 0.49c"
大小选择器帮您根据文件大小选择文件。