当前位置: 首页 >> 动画电影 >> 开心汉堡店[中文字幕].The.Bob's.Burgers.Movie.2022.BluRay.1080p.DTS-HDMA5.1.x265.10bit-Xiaomi 6.45GB >> 正文

开心汉堡店[中文字幕].The.Bob's.Burgers.Movie.2022.BluRay.1080p.DTS-HDMA5.1.x265.10bit-Xiaomi 6.45GB

2022年11月19日 20:13:03     电影发布:来源于网络     电影分类:动画电影     评论(0)    

◎标 题 开心汉堡店

◎译 名 开心汉堡店电影版

◎片 名 Bob's Burgers: The Movie

◎年 代 2022

◎产 地 美国

◎类 别 喜剧 / 动画 / 歌舞 / 冒险

◎语 言 英语 / 德语

◎上映日期 2022-05-27(美国)

◎IMDb链接 https://www.imdb.com/title/tt7466442/

◎豆瓣评分 7.3/10 (148人评价)

◎豆瓣链接 https://movie.douban.com/subject/27162630/

◎导 演 劳伦·布查德 Loren Bouchard

伯纳德·德里曼 Bernard Derriman

◎编 剧 劳伦·布查德 Loren Bouchard

诺拉·史密斯 Nora Smith

吉姆·达特里夫 Jim Dauterive

◎演 员 H·乔恩·本杰明 H. Jon Benjamin

约翰·罗伯茨 John Roberts

丹·明茨 Dan Mintz

尤金·米尔曼 Eugene Mirman

克里斯汀·沙尔 Kristen Schaal

大卫·韦恩 David Wain

扎克·加利凡纳基斯 Zach Galifianakis

凯文·克莱恩 Kevin Kline

拉里·墨菲 Larry Murphy

盖瑞·科尔 Gary Cole

保罗·F·汤普金斯 Paul F. Tompkins

约翰·Q·库宾 John Q. Kubin

尼克·克罗尔 Nick Kroll

克雷格·安东 Craig Anton

大卫·赫尔曼 David Herman

杰米·莫耶 Jaime Moyer

布莱恩·赫斯基 Brian Huskey

斯蒂芬妮·比翠丝 Stephanie Beatriz

乔丹·皮尔 Jordan Peele

罗布·许贝尔 Rob Huebel

帕维什·齐纳 Parvesh Cheena

妮可·拜尔 Nicole Byer

罗伯特·本·加兰特 Robert Ben Garant

劳拉·希尔维曼 Laura Silverman

阿兹·安萨里 Aziz Ansari

山姆·塞德 Sam Seder

保罗·路德 Paul Rudd

珍妮·斯蕾特 Jenny Slate

萨拉·西尔弗曼 Sarah Silverman

阿什利·妮可·布莱克 Ashley Nicole Black

布鲁克·迪尔曼 Brooke Dillman

劳伦·布查德 Loren Bouchard

凯蒂·克朗 Katie Crown

菲尔·拉马 Phil LaMarr

本·普罗斯基 Ben Pronsky

米歇尔·拉夫 Michelle Ruff

◎简 介

本片为热门动画《开心汉堡店》的电影版。

故事围绕一家名为“鲍勃汉堡店”的餐厅展开,讲述店主鲍勃一家和邻里之间的有趣故事。这次他们遇到了大麻烦,汉堡店门口塌陷出大坑,鲍勃和琳达还得继续维持餐厅的生意。与此同时,孩子们也正试图揭开一个能帮助挽救自家餐厅的谜题。

  1. ##### MediaInfo ######

  2. General

  3. Unique ID : 202002417042986381426905285667181144321 (0x97F840190BB9A1DF3403F777DF1DA901)

  4. Complete name : The.Bob's.Burgers.Movie.2022.BluRay.1080p.DTS-HDMA5.1.x265.10bit-Xiaomi.mkv

  5. Format : Matroska

  6. Format version : Version 4

  7. File size : 6.45 GiB

  8. Duration : 1 h 41 min

  9. Overall bit rate mode : Variable

  10. Overall bit rate : 9 058 kb/s

  11. Encoded date : UTC 2022-07-13 15:50:21

  12. Writing application : mkvmerge v62.0.0 ('Apollo') 64-bit

  13. Writing library : libebml v1.4.2 + libmatroska v1.6.4

  14. Video

  15. ID : 1

  16. Format : HEVC

  17. Format/Info : High Efficiency Video Coding

  18. Format profile : Main [email protected]@Main

  19. Codec ID : V_MPEGH/ISO/HEVC

  20. Duration : 1 h 41 min

  21. Bit rate : 5 335 kb/s

  22. Width : 1 920 pixels

  23. Height : 804 pixels

  24. Display aspect ratio : 2.40:1

  25. Frame rate mode : Constant

  26. Frame rate : 23.976 (23976/1000/53354) FPS

  27. Color space : YUV

  28. Chroma subsampling : 4:2:0

  29. Bit depth : 10 bits

  30. Bits/(Pixel*Frame) : 0.144

  31. Stream size : 3.80 GiB (59%)

  32. Writing library : x265 3.5+10-82786fccc:[Windows][MSVC 1929][64 bit] 10bit

  33. Encoding settings : cpuid=533541111039 / frame-threads=5 / numa-pools=36,36 / wpp / no-pmode / no-pme / no-psnr / no-ssim / log-level=2 / input-csp=1 / input-res=1920x804 / interlace=0 / total-frames=0 / level-idc=0 / high-tier=1 / uhd-bd=0 / ref=6 / no-allow-non-conformance / repeat-headers / annexb / no-aud / no-eob / no-eos / no-hrd / info / hash=0 / no-temporal-layers / no-open-gop / min-keyint=23 / keyint=250 / gop-lookahead=0 / bframes=8 / b-adapt=2 / b-pyramid / bframe-bias=0 / rc-lookahead=24 / lookahead-slices=5 / NTMzNTQ=uuDQuD2mJt9fsCf / scenecut=40 / hist-scenecut=0 / radl=0 / no-splice / no-intra-refresh / ctu=64 / min-cu-size=8 / no-rect / no-amp / max-tu-size=32 / tu-inter-depth=1 / tu-intra-depth=1 / limit-tu=0 / rdoq-level=0 / dynamic-rd=0.00 / no-ssim-rd / signhide / no-tskip / nr-intra=0 / nr-inter=0 / no-constrained-intra / no-strong-intra-smoothing / max-merge=3 / limit-refs=1 / no-limit-modes / me=2 / subme=7 / merange=48 / temporal-mvp / no-frame-dup / no-hme / weightp / weightb / no-analyze-src-pics / deblock=0:0 / sao / no-sao-non-deblock / rd=4 / selective-sao=4 / early-skip / rskip / no-fast-intra / no-tskip-fast / no-cu-lossless / b-intra / no-splitrd-skip / rdpenalty=0 / psy-rd=2.00 / psy-rdoq=0.00 / no-rd-refine / no-lossless / cbqpoffs=0 / crqpoffs=0 / rc=crf / crf=12.0 / qcomp=0.60 / qpstep=4 / stats-write=0 / stats-read=0 / ipratio=1.40 / pbratio=1.30 / aq-mode=3 / aq-strength=1.00 / cutree / zone-count=0 / no-strict-cbr / qg-size=32 / no-rc-grain / qpmax=69 / qpmin=0 / no-const-vbv / sar=0 / overscan=0 / videoformat=5 / range=0 / colorprim=2 / transfer=2 / colormatrix=2 / chromaloc=0 / display-window=0 / cll=0,0 / min-luma=0 / max-luma=1023 / log2-max-poc-lsb=8 / vui-timing-info / vui-hrd-info / slices=1 / no-opt-qp-pps / no-opt-ref-list-length-pps / no-multi-pass-opt-rps / scenecut-bias=0.05 / hist-threshold=0.03 / no-opt-cu-delta-qp / aq-motion / no-hdr10 / no-hdr10-opt / no-dhdr10-opt / no-idr-recovery-sei / analysis-reuse-level=0 / analysis-save-reuse-level=0 / analysis-load-reuse-level=0 / scale-factor=0 / refine-intra=0 / refine-inter=0 / refine-mv=1 / refine-ctu-distortion=0 / no-limit-sao / ctu-info=0 / no-lowpass-dct / refine-analysis-type=0 / copy-pic=1 / max-ausize-factor=1.0 / no-dynamic-refine / no-single-sei / no-hevc-aq / no-svt / no-field / qp-adaptation-range=1.00 / scenecut-aware-qp=0conformance-window-offsets / right=0 / bottom=0 / NTMzNTQ= / decoder-max-rate=0 / no-vbv-live-multi-pass

  34. Default : Yes

  35. Forced : No

  36. Audio

  37. ID : 2

  38. Format : DTS XLL

  39. Format/Info : Digital Theater Systems

  40. Commercial name : DTS-HD Master Audio

  41. Codec ID : A_DTS

  42. Duration : 1 h 41 min

  43. Bit rate mode : Variable

  44. Bit rate : 3 558 kb/s

  45. Channel(s) : 6 channels

  46. Channel layout : C L R Ls Rs LFE

  47. Sampling rate : 48.0 kHz

  48. Frame rate : 93.750 FPS (512 SPF)

  49. Bit depth : 24 bits

  50. Compression mode : Lossless

  51. Stream size : 2.53 GiB (39%)

  52. Language : English

  53. Default : Yes

  54. Forced : No

  55. Text #1

  56. ID : 3

  57. Format : PGS

  58. Muxing mode : zlib

  59. Codec ID : S_HDMV/PGS

  60. Codec ID/Info : Picture based subtitle format used on BDs/HD-DVDs

  61. Duration : 1 h 41 min

  62. Bit rate : 51.4 kb/s

  63. Count of elements : 2923

  64. Stream size : 37.2 MiB (1%)

  65. Language : Chinese

  66. Default : Yes

  67. Forced : No

  68. Text #2

  69. ID : 4

  70. Format : PGS

  71. Muxing mode : zlib

  72. Codec ID : S_HDMV/PGS

  73. Codec ID/Info : Picture based subtitle format used on BDs/HD-DVDs

  74. Duration : 1 h 41 min

  75. Bit rate : 51.9 kb/s

  76. Count of elements : 2923

  77. Stream size : 37.6 MiB (1%)

  78. Language : Chinese

  79. Default : Yes

  80. Forced : No

  81. Text #3

  82. ID : 5

  83. Format : PGS

  84. Muxing mode : zlib

  85. Codec ID : S_HDMV/PGS

  86. Codec ID/Info : Picture based subtitle format used on BDs/HD-DVDs

  87. Duration : 1 h 41 min

  88. Bit rate : 98.4 kb/s

  89. Count of elements : 2923

  90. Stream size : 71.3 MiB (1%)

  91. Language : Chinese

  92. Default : Yes

  93. Forced : No

  94. Text #4

  95. ID : 6

  96. Format : PGS

  97. Muxing mode : zlib

  98. Codec ID : S_HDMV/PGS

  99. Codec ID/Info : Picture based subtitle format used on BDs/HD-DVDs

  100. Duration : 1 h 41 min

  101. Bit rate : 99.0 kb/s

  102. Count of elements : 2923

  103. Stream size : 71.7 MiB (1%)

  104. Language : Chinese

  105. Default : Yes

  106. Forced : No

  107. Text #5

  108. ID : 7

  109. Format : PGS

  110. Muxing mode : zlib

  111. Codec ID : S_HDMV/PGS

  112. Codec ID/Info : Picture based subtitle format used on BDs/HD-DVDs

  113. Duration : 1 h 41 min

  114. Bit rate : 81.6 kb/s

  115. Count of elements : 5860

  116. Stream size : 59.4 MiB (1%)

  117. Language : English

  118. Default : Yes

  119. Forced : No

  120. Menu

  121. 00:00:00.000 : en:第 01 章

  122. 00:03:03.683 : en:第 02 章

  123. 00:06:41.901 : en:第 03 章

  124. 00:10:08.274 : en:第 04 章

  125. 00:14:57.271 : en:第 05 章

  126. 00:22:05.533 : en:第 06 章

  127. 00:27:51.086 : en:第 07 章

  128. 00:33:03.190 : en:第 08 章

  129. 00:42:01.686 : en:第 09 章

  130. 00:51:11.902 : en:第 10 章

  131. 01:03:56.124 : en:第 11 章

  132. 01:12:04.820 : en:第 12 章

  133. 01:25:49.519 : en:第 13 章

  134. 01:34:36.045 : en:第 14 章


复制代码



文件下载


除非特别注明,本文『开心汉堡店[中文字幕].The.Bob's.Burgers.Movie.2022.BluRay.1080p.DTS-HDMA5.1.x265.10bit-Xiaomi 6.45GB』来源于互联网机器人自动抓取,非本站原创。 浮游电影网不对本文拥有版权,如有侵犯,请联系邮箱:fuyouu#yandex.com[#换成@]投诉。我们会在15个工作日内删除。 但烦请转载时请标明出处:“本文转载于『浮游电影网』,原文地址:https://www.fuyouu.com/22855.html

评论吧骚年!

发表你的见解   

昵称*

E-mail*(建议输入,以便收到博主回复的提示邮件)

验证码*

您可以使用eMule或eMule Mod(Windows)、aMule(Win、Linux、Mac)等软件下载eD2k链接。。
eMule收藏集(.emulecollection)文件是您选中的所有链接的列表文件。eMule可以直接下载它们。
按住SHIFT键选择可以选中多个选择框。
可用文件名和大小选择器来选择文件。
文件名选择器帮您根据文件名称或后缀来选择文件。不分大小写。
符号使用:
和:空格( )、+
不包含:-
或:|
转义:一对英文引号("");
匹配开头:^
匹配结尾:$
例如:
选中所有名称中包含有“eMule”或“0.49c”字眼,但不包含有“exe”字眼的:emule|0.49c -exe
选中所有名称的开头是“eMule”,结尾是“0.49c”的:^emule 0.49c$
选中所有名称中带有“eMule 0.49c”的(必须是“eMule 0.49c”,中间没有别的字符,不能是“eMule fake 0.49c”),需要转义:"emule 0.49c"
大小选择器帮您根据文件大小选择文件。