当前位置: 首页 >> 欧美电影 >> 匹诺曹[国英多音轨/简繁英字幕].Pinocchio.2022.1080p.DSNP.WEB-DL.H264.DDP5.1.Atmos-TAGWEB 6.05GB >> 正文

匹诺曹[国英多音轨/简繁英字幕].Pinocchio.2022.1080p.DSNP.WEB-DL.H264.DDP5.1.Atmos-TAGWEB 6.05GB

2022年11月18日 09:42:29     电影发布:来源于网络     电影分类:欧美电影     评论(0)    

◎标 题 匹诺曹

◎译 名 木偶奇遇记(港 / 台)

◎片 名 Pinocchio

◎年 代 2022

◎产 地 美国

◎类 别 剧情 / 喜剧 / 歌舞 / 家庭 / 奇幻 / 冒险

◎语 言 英语

◎上映日期 2022-09-08(美国网络)

◎IMDb评分 6.7/10 (22人评价)

◎IMDb链接 https://www.imdb.com/title/tt4593060/

◎豆瓣链接 https://movie.douban.com/subject/26363200/

◎导 演 罗伯特·泽米吉斯 Robert Zemeckis

◎编 剧 卡洛·科洛迪 Carlo Collodi

西蒙·法纳比 Simon Farnaby

克里斯·韦兹 Chris Weitz

罗伯特·泽米吉斯 Robert Zemeckis

◎演 员 汤姆·汉克斯 Tom Hanks

本杰明·埃文·安斯沃思 Benjamin Evan Ainsworth

卢克·伊万斯 Luke Evans

辛西娅·艾莉佛 Cynthia Erivo

约瑟夫·高登-莱维特 Joseph Gordon-Levitt

科甘-迈克尔·凯 Keegan-Michael Key

洛南·布雷科 Lorraine Bracco

希拉·阿蒂姆 Sheila Atim

汉娜·弗林 Hannah Flynn

亚伦·史维斯查 Alan Silvestri

唐·伯吉斯 Don Burgess

乔安娜·约翰斯顿 Joanna Johnston

◎简 介

迪士尼将动画片《匹诺曹》(Pinocchio)改编成真人电影,由罗伯特·泽米吉斯(《阿甘正传》《回到未来》)执导。

迪士尼1940年版动画片《匹诺曹》(Pinocchio)是根据意大利作家卡洛·科洛迪(Carlo Collodi)的《木偶奇遇记》(The Adventures Of Pinocchio)改编的,曾获两项奥斯卡奖。故事主要讲述老木匠杰佩托(Geppetto)造了一个木偶,给他起名叫匹诺曹。匹诺曹一心想成为真正的男孩,但因为撒谎学坏而受到惩罚,变成了驴被坏人贩卖的冒险经历。

匹诺曹的最大特点就是一撒谎鼻子就会变长,这个典故现在也被全世界的人们所广泛使用。

迪士尼不是唯一一个打算拍《匹诺曹》电影的,吉尔摩·德尔托罗(Guillermo del Toro)和Netflix合作,将于2022年12月推出3D定格动画版《匹诺曹》(Pinocchi...

  1. ##### MediaInfo ######

  2. General

  3. Unique ID : 20748080987357603606230065296693696945 (0xF9BEF5F30464A305AD92364BB2A99B1)

  4. Complete name : Pinocchio.2022.1080p.DSNP.WEB-DL.H264.DDP5.1.Atmos-TAGWEB.mkv

  5. Format : Matroska

  6. Format version : Version 4

  7. File size : 6.05 GiB

  8. Duration : 1 h 45 min

  9. Overall bit rate mode : Variable

  10. Overall bit rate : 8 237 kb/s

  11. Encoded date : UTC 2022-11-13 11:59:27

  12. Writing application : mkvmerge v71.1.0 ('Fortitude') 64-bit

  13. Writing library : libebml v1.4.4 + libmatroska v1.7.1

  14. Video

  15. ID : 1

  16. Format : AVC

  17. Format/Info : Advanced Video Codec

  18. Format profile : [email protected]

  19. Format settings : CABAC / 4 Ref Frames

  20. Format settings, CABAC : Yes

  21. Format settings, Reference frames : 4 frames

  22. Codec ID : V_MPEG4/ISO/AVC

  23. Duration : 1 h 45 min

  24. Bit rate mode : Variable

  25. Bit rate : 6 951 kb/s

  26. Maximum bit rate : 12.7 Mb/s

  27. Width : 1 920 pixels

  28. Height : 1 080 pixels

  29. Display aspect ratio : 16:9

  30. Frame rate mode : Constant

  31. Frame rate : 24.000 FPS

  32. Color space : YUV

  33. Chroma subsampling : 4:2:0

  34. Bit depth : 8 bits

  35. Scan type : Progressive

  36. Bits/(Pixel*Frame) : 0.140

  37. Stream size : 5.11 GiB (84%)

  38. Language : English

  39. Default : Yes

  40. Forced : No

  41. Color range : Limited

  42. Color primaries : BT.709

  43. Transfer characteristics : BT.709

  44. Matrix coefficients : BT.709

  45. Audio #1

  46. ID : 2

  47. Format : E-AC-3 JOC

  48. Format/Info : Enhanced AC-3 with Joint Object Coding

  49. Commercial name : Dolby Digital Plus with Dolby Atmos

  50. Codec ID : A_EAC3

  51. Duration : 1 h 45 min

  52. Bit rate mode : Constant

  53. Bit rate : 768 kb/s

  54. Channel(s) : 6 channels

  55. Channel layout : L R C LFE Ls Rs

  56. Sampling rate : 48.0 kHz

  57. Frame rate : 31.250 FPS (1536 SPF)

  58. Compression mode : Lossy

  59. Stream size : 578 MiB (9%)

  60. Title : English

  61. Language : English

  62. Service kind : Complete Main

  63. Default : Yes

  64. Forced : No

  65. Complexity index : 16

  66. Number of dynamic objects : 15

  67. Bed channel count : 1 channel

  68. Bed channel configuration : LFE

  69. Audio #2

  70. ID : 3

  71. Format : E-AC-3

  72. Format/Info : Enhanced AC-3

  73. Commercial name : Dolby Digital Plus

  74. Codec ID : A_EAC3

  75. Duration : 1 h 45 min

  76. Bit rate mode : Constant

  77. Bit rate : 256 kb/s

  78. Channel(s) : 6 channels

  79. Channel layout : L R C LFE Ls Rs

  80. Sampling rate : 48.0 kHz

  81. Frame rate : 31.250 FPS (1536 SPF)

  82. Compression mode : Lossy

  83. Stream size : 193 MiB (3%)

  84. Title : Mandarin Chinese

  85. Language : Chinese

  86. Service kind : Complete Main

  87. Default : No

  88. Forced : No

  89. Audio #3

  90. ID : 4

  91. Format : E-AC-3

  92. Format/Info : Enhanced AC-3

  93. Commercial name : Dolby Digital Plus

  94. Codec ID : A_EAC3

  95. Duration : 1 h 45 min

  96. Bit rate mode : Constant

  97. Bit rate : 256 kb/s

  98. Channel(s) : 6 channels

  99. Channel layout : L R C LFE Ls Rs

  100. Sampling rate : 48.0 kHz

  101. Frame rate : 31.250 FPS (1536 SPF)

  102. Compression mode : Lossy

  103. Stream size : 193 MiB (3%)

  104. Title : Mandarin Chinese

  105. Language : Chinese

  106. Service kind : Complete Main

  107. Default : No

  108. Forced : No

  109. Text #1

  110. ID : 5

  111. Format : UTF-8

  112. Codec ID : S_TEXT/UTF8

  113. Codec ID/Info : UTF-8 Plain Text

  114. Duration : 1 h 44 min

  115. Bit rate : 48 b/s

  116. Count of elements : 1095

  117. Stream size : 37.0 KiB (0%)

  118. Title : 中文 (简体)

  119. Language : Chinese

  120. Default : Yes

  121. Forced : No

  122. Text #2

  123. ID : 6

  124. Format : UTF-8

  125. Codec ID : S_TEXT/UTF8

  126. Codec ID/Info : UTF-8 Plain Text

  127. Duration : 1 h 44 min

  128. Bit rate : 46 b/s

  129. Count of elements : 1095

  130. Stream size : 35.9 KiB (0%)

  131. Title : 中文 (繁體,中國香港特別行政區)

  132. Language : Chinese

  133. Default : No

  134. Forced : No

  135. Text #3

  136. ID : 7

  137. Format : UTF-8

  138. Codec ID : S_TEXT/UTF8

  139. Codec ID/Info : UTF-8 Plain Text

  140. Duration : 1 h 44 min

  141. Bit rate : 47 b/s

  142. Count of elements : 1095

  143. Stream size : 36.3 KiB (0%)

  144. Title : 中文 (繁體)

  145. Language : Chinese

  146. Default : No

  147. Forced : No

  148. Text #4

  149. ID : 8

  150. Format : UTF-8

  151. Codec ID : S_TEXT/UTF8

  152. Codec ID/Info : UTF-8 Plain Text

  153. Duration : 1 h 38 min

  154. Bit rate : 69 b/s

  155. Count of elements : 1564

  156. Stream size : 50.2 KiB (0%)

  157. Title : English

  158. Language : English

  159. Default : No

  160. Forced : No

  161. Text #5

  162. ID : 9

  163. Format : UTF-8

  164. Codec ID : S_TEXT/UTF8

  165. Codec ID/Info : UTF-8 Plain Text

  166. Duration : 1 h 44 min

  167. Bit rate : 53 b/s

  168. Count of elements : 1085

  169. Stream size : 41.1 KiB (0%)

  170. Title : ?e?tina

  171. Language : Czech

  172. Default : No

  173. Forced : No

  174. Text #6

  175. ID : 10

  176. Format : UTF-8

  177. Codec ID : S_TEXT/UTF8

  178. Codec ID/Info : UTF-8 Plain Text

  179. Duration : 1 h 44 min

  180. Bit rate : 48 b/s

  181. Count of elements : 964

  182. Stream size : 37.4 KiB (0%)

  183. Title : dansk

  184. Language : Danish

  185. Default : No

  186. Forced : No

  187. Text #7

  188. ID : 11

  189. Format : UTF-8

  190. Codec ID : S_TEXT/UTF8

  191. Codec ID/Info : UTF-8 Plain Text

  192. Duration : 1 h 44 min

  193. Bit rate : 50 b/s

  194. Count of elements : 1046

  195. Stream size : 38.9 KiB (0%)

  196. Title : Deutsch

  197. Language : German

  198. Default : No

  199. Forced : No

  200. Text #8

  201. ID : 12

  202. Format : UTF-8

  203. Codec ID : S_TEXT/UTF8

  204. Codec ID/Info : UTF-8 Plain Text

  205. Duration : 1 h 44 min

  206. Bit rate : 92 b/s

  207. Count of elements : 1089

  208. Stream size : 70.9 KiB (0%)

  209. Title : Ελληνικ?

  210. Language : Greek

  211. Default : No

  212. Forced : No

  213. Text #9

  214. ID : 13

  215. Format : UTF-8

  216. Codec ID : S_TEXT/UTF8

  217. Codec ID/Info : UTF-8 Plain Text

  218. Duration : 1 h 44 min

  219. Bit rate : 52 b/s

  220. Count of elements : 1097

  221. Stream size : 40.2 KiB (0%)

  222. Title : espa?ol (Latinoamérica)

  223. Language : Spanish

  224. Default : No

  225. Forced : No

  226. Text #10

  227. ID : 14

  228. Format : UTF-8

  229. Codec ID : S_TEXT/UTF8

  230. Codec ID/Info : UTF-8 Plain Text

  231. Duration : 1 h 44 min

  232. Bit rate : 51 b/s

  233. Count of elements : 1093

  234. Stream size : 39.2 KiB (0%)

  235. Title : espa?ol (Espa?a)

  236. Language : Spanish

  237. Default : No

  238. Forced : No

  239. Text #11

  240. ID : 15

  241. Format : UTF-8

  242. Codec ID : S_TEXT/UTF8

  243. Codec ID/Info : UTF-8 Plain Text

  244. Duration : 1 h 44 min

  245. Bit rate : 47 b/s

  246. Count of elements : 1083

  247. Stream size : 36.7 KiB (0%)

  248. Title : suomi

  249. Language : Finnish

  250. Default : No

  251. Forced : No

  252. Text #12

  253. ID : 16

  254. Format : UTF-8

  255. Codec ID : S_TEXT/UTF8

  256. Codec ID/Info : UTF-8 Plain Text

  257. Duration : 1 h 43 min

  258. Bit rate : 48 b/s

  259. Count of elements : 1246

  260. Stream size : 37.2 KiB (0%)

  261. Title : fran?ais (France)

  262. Language : French

  263. Default : No

  264. Forced : No

  265. Text #13

  266. ID : 17

  267. Format : UTF-8

  268. Codec ID : S_TEXT/UTF8

  269. Codec ID/Info : UTF-8 Plain Text

  270. Duration : 1 h 44 min

  271. Bit rate : 50 b/s

  272. Count of elements : 1090

  273. Stream size : 38.7 KiB (0%)

  274. Title : magyar

  275. Language : Hungarian

  276. Default : No

  277. Forced : No

  278. Text #14

  279. ID : 18

  280. Format : UTF-8

  281. Codec ID : S_TEXT/UTF8

  282. Codec ID/Info : UTF-8 Plain Text

  283. Duration : 1 h 44 min

  284. Bit rate : 53 b/s

  285. Count of elements : 1091

  286. Stream size : 40.7 KiB (0%)

  287. Title : italiano

  288. Language : Italian

  289. Default : No

  290. Forced : No

  291. Text #15

  292. ID : 19

  293. Format : UTF-8

  294. Codec ID : S_TEXT/UTF8

  295. Codec ID/Info : UTF-8 Plain Text

  296. Duration : 1 h 44 min

  297. Bit rate : 48 b/s

  298. Count of elements : 1208

  299. Stream size : 37.3 KiB (0%)

  300. Title : 日本

  301. Language : Japanese

  302. Default : No

  303. Forced : No

  304. Text #16

  305. ID : 20

  306. Format : UTF-8

  307. Codec ID : S_TEXT/UTF8

  308. Codec ID/Info : UTF-8 Plain Text

  309. Duration : 1 h 44 min

  310. Bit rate : 56 b/s

  311. Count of elements : 1097

  312. Stream size : 43.2 KiB (0%)

  313. Title : ???

  314. Language : Korean

  315. Default : No

  316. Forced : No

  317. Text #17

  318. ID : 21

  319. Format : UTF-8

  320. Codec ID : S_TEXT/UTF8

  321. Codec ID/Info : UTF-8 Plain Text

  322. Duration : 1 h 44 min

  323. Bit rate : 48 b/s

  324. Count of elements : 1091

  325. Stream size : 37.2 KiB (0%)

  326. Title : norsk bokm?l

  327. Language : Norwegian Bokmal

  328. Default : No

  329. Forced : No

  330. Text #18

  331. ID : 22

  332. Format : UTF-8

  333. Codec ID : S_TEXT/UTF8

  334. Codec ID/Info : UTF-8 Plain Text

  335. Duration : 1 h 43 min

  336. Bit rate : 48 b/s

  337. Count of elements : 990

  338. Stream size : 37.1 KiB (0%)

  339. Title : Nederlands

  340. Language : Dutch

  341. Default : No

  342. Forced : No

  343. Text #19

  344. ID : 23

  345. Format : UTF-8

  346. Codec ID : S_TEXT/UTF8

  347. Codec ID/Info : UTF-8 Plain Text

  348. Duration : 1 h 44 min

  349. Bit rate : 49 b/s

  350. Count of elements : 1070

  351. Stream size : 38.3 KiB (0%)

  352. Title : Nederlands (Belgi?)

  353. Language : Dutch

  354. Default : No

  355. Forced : No

  356. Text #20

  357. ID : 24

  358. Format : UTF-8

  359. Codec ID : S_TEXT/UTF8

  360. Codec ID/Info : UTF-8 Plain Text

  361. Duration : 1 h 44 min

  362. Bit rate : 44 b/s

  363. Count of elements : 1089

  364. Stream size : 34.4 KiB (0%)

  365. Title : polski

  366. Language : Polish

  367. Default : No

  368. Forced : No

  369. Text #21

  370. ID : 25

  371. Format : UTF-8

  372. Codec ID : S_TEXT/UTF8

  373. Codec ID/Info : UTF-8 Plain Text

  374. Duration : 1 h 44 min

  375. Bit rate : 54 b/s

  376. Count of elements : 1093

  377. Stream size : 42.0 KiB (0%)

  378. Title : português (Brasil)

  379. Language : Portuguese

  380. Default : No

  381. Forced : No

  382. Text #22

  383. ID : 26

  384. Format : UTF-8

  385. Codec ID : S_TEXT/UTF8

  386. Codec ID/Info : UTF-8 Plain Text

  387. Duration : 1 h 44 min

  388. Bit rate : 53 b/s

  389. Count of elements : 1091

  390. Stream size : 41.1 KiB (0%)

  391. Title : português (Portugal)

  392. Language : Portuguese

  393. Default : No

  394. Forced : No

  395. Text #23

  396. ID : 27

  397. Format : UTF-8

  398. Codec ID : S_TEXT/UTF8

  399. Codec ID/Info : UTF-8 Plain Text

  400. Duration : 1 h 44 min

  401. Bit rate : 55 b/s

  402. Count of elements : 1087

  403. Stream size : 42.6 KiB (0%)

  404. Title : roman?

  405. Language : Romanian

  406. Default : No

  407. Forced : No

  408. Text #24

  409. ID : 28

  410. Format : UTF-8

  411. Codec ID : S_TEXT/UTF8

  412. Codec ID/Info : UTF-8 Plain Text

  413. Duration : 1 h 44 min

  414. Bit rate : 50 b/s

  415. Count of elements : 1091

  416. Stream size : 39.0 KiB (0%)

  417. Title : sloven?ina

  418. Language : Slovak

  419. Default : No

  420. Forced : No

  421. Text #25

  422. ID : 29

  423. Format : UTF-8

  424. Codec ID : S_TEXT/UTF8

  425. Codec ID/Info : UTF-8 Plain Text

  426. Duration : 1 h 44 min

  427. Bit rate : 46 b/s

  428. Count of elements : 1079

  429. Stream size : 35.4 KiB (0%)

  430. Title : svenska

  431. Language : Swedish

  432. Default : No

  433. Forced : No

  434. Text #26

  435. ID : 30

  436. Format : UTF-8

  437. Codec ID : S_TEXT/UTF8

  438. Codec ID/Info : UTF-8 Plain Text

  439. Duration : 1 h 44 min

  440. Bit rate : 52 b/s

  441. Count of elements : 1088

  442. Stream size : 40.2 KiB (0%)

  443. Title : Türk?e

  444. Language : Turkish

  445. Default : No

  446. Forced : No

  447. Menu

  448. 01:38:23.583 : en:Credits


复制代码



文件下载


除非特别注明,本文『匹诺曹[国英多音轨/简繁英字幕].Pinocchio.2022.1080p.DSNP.WEB-DL.H264.DDP5.1.Atmos-TAGWEB 6.05GB』来源于互联网机器人自动抓取,非本站原创。 浮游电影网不对本文拥有版权,如有侵犯,请联系邮箱:fuyouu#yandex.com[#换成@]投诉。我们会在15个工作日内删除。 但烦请转载时请标明出处:“本文转载于『浮游电影网』,原文地址:https://www.fuyouu.com/22853.html

评论吧骚年!

发表你的见解   

昵称*

E-mail*(建议输入,以便收到博主回复的提示邮件)

验证码*

您可以使用eMule或eMule Mod(Windows)、aMule(Win、Linux、Mac)等软件下载eD2k链接。。
eMule收藏集(.emulecollection)文件是您选中的所有链接的列表文件。eMule可以直接下载它们。
按住SHIFT键选择可以选中多个选择框。
可用文件名和大小选择器来选择文件。
文件名选择器帮您根据文件名称或后缀来选择文件。不分大小写。
符号使用:
和:空格( )、+
不包含:-
或:|
转义:一对英文引号("");
匹配开头:^
匹配结尾:$
例如:
选中所有名称中包含有“eMule”或“0.49c”字眼,但不包含有“exe”字眼的:emule|0.49c -exe
选中所有名称的开头是“eMule”,结尾是“0.49c”的:^emule 0.49c$
选中所有名称中带有“eMule 0.49c”的(必须是“eMule 0.49c”,中间没有别的字符,不能是“eMule fake 0.49c”),需要转义:"emule 0.49c"
大小选择器帮您根据文件大小选择文件。