当前位置: 首页 >> 海外电影 >> 丢失的彩票[中文字幕].The.Lost.Lotteries.2022.1080p.NF.WEB-DL.DDP5.1.HDR.H.265-MOMOWEB 1.37GB >> 正文

丢失的彩票[中文字幕].The.Lost.Lotteries.2022.1080p.NF.WEB-DL.DDP5.1.HDR.H.265-MOMOWEB 1.37GB

2022年11月18日 09:29:10     电影发布:来源于网络     电影分类:海外电影     评论(0)    

◎标 题 丢失的彩票

◎译 名 The Lost Lotteries

◎片 名 ปฏิบัติการกู้หวย

◎年 代 2022

◎产 地 泰国

◎类 别 喜剧 / 犯罪

◎语 言 泰语

◎上映日期 2022-11-16(泰国网络)

◎IMDb链接 https://www.imdb.com/title/tt22695198/

◎豆瓣链接 https://movie.douban.com/subject/36119436/

◎片 长 106分钟

◎导 演 普鲁克萨·阿玛鲁奇 Prueksa Amaruji

◎编 剧 普鲁克萨·阿玛鲁奇 Prueksa Amaruji

◎演 员 翁拉维·那提通 Wongravee Nateetorn

芬蒂拉·皮皮亚克隆 Phantira Pipityakorn

娜帕帕·丹特拉库尔 Napapa Tantragul

苏提拉克·素维杰拉 Sutthirak Subvijitra

娜帕帕·丹特拉库尔 Napapa Thantrakul

卡纳潘·佩泽坤 Kanaphan Puitrakul

◎简 介

A heist-comedy film about a group of people who live from hand to mouth come together as a team with a mission to get their winning lottery tickets back from a mafia creditor who took the winning lottery tickets without knowing that it wins the prize of 30 million baht!

  1. ##### MediaInfo ######

  2. General

  3. Unique ID : 146914450591888676213549779473196815804 (0x6E86B1A7BE51FE93C0D8F2F9516695BC)

  4. Complete name : The.Lost.Lotteries.2022.1080p.NF.WEB-DL.DDP5.1.HDR.H.265-MOMOWEB.mkv

  5. Format : Matroska

  6. Format version : Version 4

  7. File size : 1.37 GiB

  8. Duration : 1 h 46 min

  9. Overall bit rate : 1 845 kb/s

  10. Encoded date : UTC 2022-11-16 16:13:33

  11. Writing application : mkvmerge v70.0.0 ('Caught A Lite Sneeze') 64-bit

  12. Writing library : libebml v1.4.2 + libmatroska v1.6.4

  13. Video

  14. ID : 1

  15. Format : HEVC

  16. Format/Info : High Efficiency Video Coding

  17. Format profile : Main [email protected]@Main

  18. HDR format : SMPTE ST 2086, HDR10 compatible

  19. Codec ID : V_MPEGH/ISO/HEVC

  20. Duration : 1 h 46 min

  21. Bit rate : 1 207 kb/s

  22. Width : 1 920 pixels

  23. Height : 1 080 pixels

  24. Display aspect ratio : 16:9

  25. Frame rate mode : Constant

  26. Frame rate : 24.000 FPS

  27. Color space : YUV

  28. Chroma subsampling : 4:2:0 (Type 2)

  29. Bit depth : 10 bits

  30. Bits/(Pixel*Frame) : 0.024

  31. Stream size : 917 MiB (65%)

  32. Language : Thai

  33. Default : Yes

  34. Forced : No

  35. Color range : Limited

  36. Color primaries : BT.2020

  37. Transfer characteristics : PQ

  38. Matrix coefficients : BT.2020 non-constant

  39. Mastering display color primaries : Display P3

  40. Mastering display luminance : min: 0.0001 cd/m2, max: 1000 cd/m2

  41. Maximum Content Light Level : 1099 cd/m2

  42. Maximum Frame-Average Light Level : 802 cd/m2

  43. Audio

  44. ID : 2

  45. Format : E-AC-3

  46. Format/Info : Enhanced AC-3

  47. Commercial name : Dolby Digital Plus

  48. Codec ID : A_EAC3

  49. Duration : 1 h 46 min

  50. Bit rate mode : Constant

  51. Bit rate : 640 kb/s

  52. Channel(s) : 6 channels

  53. Channel layout : L R C LFE Ls Rs

  54. Sampling rate : 48.0 kHz

  55. Frame rate : 31.250 FPS (1536 SPF)

  56. Compression mode : Lossy

  57. Stream size : 488 MiB (35%)

  58. Language : Thai

  59. Service kind : Complete Main

  60. Default : Yes

  61. Forced : No

  62. Text #1

  63. ID : 3

  64. Format : UTF-8

  65. Codec ID : S_TEXT/UTF8

  66. Codec ID/Info : UTF-8 Plain Text

  67. Duration : 58 min 14 s

  68. Bit rate : 0 b/s

  69. Count of elements : 2

  70. Stream size : 40.0 Bytes (0%)

  71. Title : Forced

  72. Language : Thai

  73. Default : No

  74. Forced : Yes

  75. Text #2

  76. ID : 4

  77. Format : UTF-8

  78. Codec ID : S_TEXT/UTF8

  79. Codec ID/Info : UTF-8 Plain Text

  80. Duration : 1 h 39 min

  81. Bit rate : 141 b/s

  82. Count of elements : 1622

  83. Stream size : 103 KiB (0%)

  84. Title : SDH

  85. Language : Thai

  86. Default : No

  87. Forced : No

  88. Text #3

  89. ID : 5

  90. Format : UTF-8

  91. Codec ID : S_TEXT/UTF8

  92. Codec ID/Info : UTF-8 Plain Text

  93. Duration : 1 h 45 min

  94. Bit rate : 44 b/s

  95. Count of elements : 1165

  96. Stream size : 34.4 KiB (0%)

  97. Language : German

  98. Default : No

  99. Forced : No

  100. Text #4

  101. ID : 6

  102. Format : UTF-8

  103. Codec ID : S_TEXT/UTF8

  104. Codec ID/Info : UTF-8 Plain Text

  105. Duration : 1 h 42 min

  106. Bit rate : 70 b/s

  107. Count of elements : 1890

  108. Stream size : 53.0 KiB (0%)

  109. Title : SDH

  110. Language : English

  111. Default : No

  112. Forced : No

  113. Text #5

  114. ID : 7

  115. Format : UTF-8

  116. Codec ID : S_TEXT/UTF8

  117. Codec ID/Info : UTF-8 Plain Text

  118. Duration : 1 h 39 min

  119. Bit rate : 48 b/s

  120. Count of elements : 1256

  121. Stream size : 35.0 KiB (0%)

  122. Language : English

  123. Default : No

  124. Forced : No

  125. Text #6

  126. ID : 8

  127. Format : UTF-8

  128. Codec ID : S_TEXT/UTF8

  129. Codec ID/Info : UTF-8 Plain Text

  130. Duration : 1 h 45 min

  131. Bit rate : 43 b/s

  132. Count of elements : 1193

  133. Stream size : 33.9 KiB (0%)

  134. Language : French

  135. Default : No

  136. Forced : No

  137. Text #7

  138. ID : 9

  139. Format : UTF-8

  140. Codec ID : S_TEXT/UTF8

  141. Codec ID/Info : UTF-8 Plain Text

  142. Duration : 1 h 45 min

  143. Bit rate : 73 b/s

  144. Count of elements : 1261

  145. Stream size : 57.2 KiB (0%)

  146. Language : Ukrainian

  147. Default : No

  148. Forced : No

  149. Text #8

  150. ID : 10

  151. Format : UTF-8

  152. Codec ID : S_TEXT/UTF8

  153. Codec ID/Info : UTF-8 Plain Text

  154. Duration : 1 h 45 min

  155. Bit rate : 50 b/s

  156. Count of elements : 1264

  157. Stream size : 39.0 KiB (0%)

  158. Title : Simplified

  159. Language : Chinese

  160. Default : No

  161. Forced : No


复制代码



文件下载


除非特别注明,本文『丢失的彩票[中文字幕].The.Lost.Lotteries.2022.1080p.NF.WEB-DL.DDP5.1.HDR.H.265-MOMOWEB 1.37GB』来源于互联网机器人自动抓取,非本站原创。 浮游电影网不对本文拥有版权,如有侵犯,请联系邮箱:fuyouu#yandex.com[#换成@]投诉。我们会在15个工作日内删除。 但烦请转载时请标明出处:“本文转载于『浮游电影网』,原文地址:https://www.fuyouu.com/22851.html

评论吧骚年!

发表你的见解   

昵称*

E-mail*(建议输入,以便收到博主回复的提示邮件)

验证码*

您可以使用eMule或eMule Mod(Windows)、aMule(Win、Linux、Mac)等软件下载eD2k链接。。
eMule收藏集(.emulecollection)文件是您选中的所有链接的列表文件。eMule可以直接下载它们。
按住SHIFT键选择可以选中多个选择框。
可用文件名和大小选择器来选择文件。
文件名选择器帮您根据文件名称或后缀来选择文件。不分大小写。
符号使用:
和:空格( )、+
不包含:-
或:|
转义:一对英文引号("");
匹配开头:^
匹配结尾:$
例如:
选中所有名称中包含有“eMule”或“0.49c”字眼,但不包含有“exe”字眼的:emule|0.49c -exe
选中所有名称的开头是“eMule”,结尾是“0.49c”的:^emule 0.49c$
选中所有名称中带有“eMule 0.49c”的(必须是“eMule 0.49c”,中间没有别的字符,不能是“eMule fake 0.49c”),需要转义:"emule 0.49c"
大小选择器帮您根据文件大小选择文件。