当前位置: 首页 >> 国产电影 >> 大话女儿国[60帧率版本][中文字幕/国语音轨].Tears.of.the.Queen.2022.2160p.WEB-DL.60fps.H265.10bit.DDP-TAGWEB 3.64GB >> 正文

大话女儿国[60帧率版本][中文字幕/国语音轨].Tears.of.the.Queen.2022.2160p.WEB-DL.60fps.H265.10bit.DDP-TAGWEB 3.64GB

2022年11月16日 22:06:00     电影发布:来源于网络     电影分类:国产电影     评论(0)    

◎标 题 大话女儿国

◎译 名 三生三藏

◎年 代 2022

◎产 地 中国大陆

◎类 别 喜剧 / 爱情 / 奇幻

◎语 言 汉语普通话

◎上映日期 2022-11-16(中国大陆)

◎IMDb链接 https://www.imdb.com/title//

◎豆瓣链接 https://movie.douban.com/subject/35295679/

◎片 长 85分钟

◎导 演 艾春旭

戴可威 Kewei Dai

◎编 剧 黄玉啸 Yuxiao Huang

◎演 员 张康康 Kangkang Zhang

陈樱丹 Yingdan CHen

王成思 Chengsi Wang

张梓杉 Zishan Zhang

罗威 Wei Luo

赵青怡 Qingyi Zhao

马兆壮 Zhaozhuang Ma

佟铭心 Mingxin Tong

葛洧吟 Weiyin Ge

任重 Zhong Ren

滕春鹏 Chunpeng Teng

◎简 介

酷爱机车的现代渣男唐堂在一次意外中,连人带摩托突然穿越到古代西域的精绝国,被酒店老板多多误认为是天降之神。唐堂在酒店受到了热情款待,却遇到刚刚从王宫逃出的女儿国国王如花。原来此时正值精绝国入侵女儿国,国王如花为了拯救女儿国被迫和精绝国国王和亲。二人为了躲避精绝国侯大将军的追捕临时结伴,一路上历经种种磨难,危急关头如花为唐堂挡下致命一击,唐堂痛不欲生,决定放弃一切拯救如花……

  1. ##### MediaInfo ######

  2. General

  3. Unique ID : 113387572078202208132462681223000941708 (0x554DA6EC01BBE135E2CD5F2AE0C6E48C)

  4. Complete name : Tears.of.the.Queen.2022.2160p.WEB-DL.60fps.H265.10bit.DDP-TAGWEB.mkv

  5. Format : Matroska

  6. Format version : Version 4

  7. File size : 3.64 GiB

  8. Duration : 1 h 25 min

  9. Overall bit rate : 6 109 kb/s

  10. Encoded date : UTC 2022-11-16 04:42:49

  11. Writing application : mkvmerge v62.0.0 ('Apollo') 64-bit

  12. Writing library : libebml v1.4.2 + libmatroska v1.6.4

  13. Video

  14. ID : 1

  15. Format : HEVC

  16. Format/Info : High Efficiency Video Coding

  17. Format profile : Main [email protected]@Main

  18. Codec ID : V_MPEGH/ISO/HEVC

  19. Duration : 1 h 25 min

  20. Bit rate : 5 659 kb/s

  21. Width : 3 840 pixels

  22. Height : 1 608 pixels

  23. Display aspect ratio : 2.40:1

  24. Frame rate mode : Constant

  25. Frame rate : 60.000 FPS

  26. Color space : YUV

  27. Chroma subsampling : 4:2:0

  28. Bit depth : 10 bits

  29. Bits/(Pixel*Frame) : 0.015

  30. Stream size : 3.37 GiB (93%)

  31. Default : Yes

  32. Forced : No

  33. Color range : Limited

  34. Color primaries : BT.709

  35. Transfer characteristics : BT.709

  36. Matrix coefficients : BT.709

  37. Audio #1

  38. ID : 2

  39. Format : E-AC-3

  40. Format/Info : Enhanced AC-3

  41. Commercial name : Dolby Digital Plus

  42. Codec ID : A_EAC3

  43. Duration : 1 h 25 min

  44. Bit rate mode : Constant

  45. Bit rate : 256 kb/s

  46. Channel(s) : 2 channels

  47. Channel layout : L R

  48. Sampling rate : 48.0 kHz

  49. Frame rate : 31.250 FPS (1536 SPF)

  50. Compression mode : Lossy

  51. Stream size : 156 MiB (4%)

  52. Language : Chinese

  53. Service kind : Complete Main

  54. Default : Yes

  55. Forced : No

  56. Audio #2

  57. ID : 3

  58. Format : AAC LC

  59. Format/Info : Advanced Audio Codec Low Complexity

  60. Codec ID : A_AAC-2

  61. Duration : 1 h 25 min

  62. Bit rate : 192 kb/s

  63. Channel(s) : 2 channels

  64. Channel layout : L R

  65. Sampling rate : 44.1 kHz

  66. Frame rate : 43.066 FPS (1024 SPF)

  67. Compression mode : Lossy

  68. Stream size : 116 MiB (3%)

  69. Language : Chinese

  70. Default : No

  71. Forced : No


复制代码



文件下载
资源名称:大话女儿国[60帧率版本][中文字幕/国语音轨].Tears.of.the.Queen.2022.2160p.WEB-DL.60fps.H265.10bit.DDP-TAGWEB 3.64GB

[/Download]


除非特别注明,本文『大话女儿国[60帧率版本][中文字幕/国语音轨].Tears.of.the.Queen.2022.2160p.WEB-DL.60fps.H265.10bit.DDP-TAGWEB 3.64GB』来源于互联网机器人自动抓取,非本站原创。 浮游电影网不对本文拥有版权,如有侵犯,请联系邮箱:fuyouu#yandex.com[#换成@]投诉。我们会在15个工作日内删除。 但烦请转载时请标明出处:“本文转载于『浮游电影网』,原文地址:https://www.fuyouu.com/22849.html

评论吧骚年!

发表你的见解   

昵称*

E-mail*(建议输入,以便收到博主回复的提示邮件)

验证码*

您可以使用eMule或eMule Mod(Windows)、aMule(Win、Linux、Mac)等软件下载eD2k链接。。
eMule收藏集(.emulecollection)文件是您选中的所有链接的列表文件。eMule可以直接下载它们。
按住SHIFT键选择可以选中多个选择框。
可用文件名和大小选择器来选择文件。
文件名选择器帮您根据文件名称或后缀来选择文件。不分大小写。
符号使用:
和:空格( )、+
不包含:-
或:|
转义:一对英文引号("");
匹配开头:^
匹配结尾:$
例如:
选中所有名称中包含有“eMule”或“0.49c”字眼,但不包含有“exe”字眼的:emule|0.49c -exe
选中所有名称的开头是“eMule”,结尾是“0.49c”的:^emule 0.49c$
选中所有名称中带有“eMule 0.49c”的(必须是“eMule 0.49c”,中间没有别的字符,不能是“eMule fake 0.49c”),需要转义:"emule 0.49c"
大小选择器帮您根据文件大小选择文件。